Highschool ♡ love
E-girls

ADVANCED

Level: 6
BPM: 128
Notes: 379

1
口口口口 |----|
口口口口 |----|
口口口口 |----|
口口口口 |----|
2
①口口② |①-②-|
口口口口 |--③-|
口③④口 |④---|
口口口口 |----|
3
口⑤⑤口 |①-②-|
③口口④ |--③-|
口口口口 |④---|
口①②口 |⑤---|
4
口口口口 |①---|
口③③口 |--②-|
②口口② |----|
①口口① |③---|
5
①口口① |①---|
②口口② |②---|
③口口③ |③---|
④口口④ |④---|
6
口口口口 |①---|
②①①② |--②-|
②①①② |----|
口口口口 |----|
7
口口口口 |--①-|
口口口口 |----|
口口口③ |②---|
口口①② |--③-|
8
口口口② |----|
口口口① |①---|
口口口口 |--②-|
口口口口 |----|
9
口①②口 |①-②-|
口③④口 |③-④-|
口⑤⑥口 |⑤-⑥-|
口⑦⑧口 |⑦-⑧-|
10
口口口口 |----|
口口②① |----|
口③口口 |--①-|
口口口口 |②-③-|
11
口口口口 |①---|
口口口② |②-③-|
①⑤⑤③ |④---|
口口口④ |⑤---|
12
①口②① |①---|
口③口口 |②-③-|
口口④口 |④-⑤-|
口⑤口口 |----|
13
口②①口 |①-②-|
口④③口 |③-④-|
⑤口口⑤ |⑤---|
⑥口口⑥ |⑥---|
14
口②口① |①-②-|
口④口③ |③-④-|
口⑥口⑤ |⑤-⑥-|
口口口⑦ |⑦---|
15
①⑥口口 |①-②-|
②口口口 |③-④-|
口⑤③口 |⑤---|
口口④口 |⑥---|
16
口口⑥① |①-②-|
口口口② |③-④-|
口③⑤口 |⑤---|
口④口口 |⑥---|
17
口④口口 |①-②-|
⑤③口口 |③-④-|
⑥②口口 |--⑤-|
⑦①口口 |⑥-⑦-|
18
①口①口 |①-②-|
口②口口 |③-④-|
口③口③ |----|
口口④口 |----|
19
③口口② |①---|
⑤①①④ |②-③-|
⑦口口⑥ |④-⑤-|
口口口口 |⑥-⑦-|
20
口②口口 |①---|
口口③口 |②-③-|
口口口口
口①①口

口口口口
口⑤口口
口口口口 |----|
口④口口 |④-⑤-|
21
①口口① |①---|
②⑤口② |②---|
③口④③ |③---|
口口口口 |④-⑤-|
22
②口①② |①---|
口口口口 |②---|
口④③口 |③-④-|
口⑥⑤口 |⑤-⑥-|
23
③口口② |①---|
⑤①①④ |②-③-|
⑦口口⑥ |④-⑤-|
口口口口 |⑥-⑦-|
24
口口口口 |①---|
口⑤③口 |②-③-|
口①①口 |----|
口④②口 |④-⑤-|
25
口口口口 |①-②-|
④口⑤① |③-④-|
⑥③②口 |--⑤-|
口口⑦口 |⑥-⑦-|
26
口①口口 |①-②-|
口②口口 |③-④-|
口③④口 |----|
口口口口 |----|
27
口口口③ |①---|
②口④① |②---|
②⑤口① |③-④-|
⑥口口口 |⑤-⑥-|
28
③口口口 |①---|
②④口① |②---|
②口⑤① |③-④-|
口口口⑥ |⑤-⑥-|
29
口口①口 |--①-|
口②③口 |②-③-|
口④⑤口 |④-⑤-|
口⑥⑦口 |⑥-⑦-|
30
口口口④ |①-②-|
③⑥⑥口 |③-④-|
口⑤⑤② |⑤---|
①口口口 |⑥---|
31
①①①① |①---|
口口口口 |----|
口口口口
口口口口

口口口④
口口口③
口口口② |--②-|
口口口口 |③-④-|
32
口①口口 |①-②-|
口②口口 |③-④-|
④③④口 |--⑤-|
⑥⑤⑥⑤ |--⑥-|
33
口口口口 |①---|
①口①口 |②---|
口②⑤② |③---|
③④③口 |④-⑤-|
34
口口口口 |①---|
④口口① |②-③-|
口③⑥口 |④---|
口⑤②口 |⑤-⑥-|
35
口⑥⑤④ |①---|
口②②① |②---|
③口口③ |③-④-|
口口口口 |⑤-⑥-|
36
口口口口 |①-②-|
①②③④ |③-④-|
⑧⑦⑥⑤ |⑤-⑥-|
口口口口 |⑦-⑧-|
37
口①口① |①---|
②⑤②口 |②---|
口③④③ |③---|
口口口口 |④-⑤-|
38
①口口④ |①---|
口⑥③口 |②-③-|
口②⑤口 |④---|
口口口口 |⑤-⑥-|
39
①②②口 |①---|
③④④③ |②---|
口④④口 |③---|
口口口口 |④---|
40
口④④口 |①---|
口③③口 |--②-|
①口口② |--③-|
①口口② |--④-|
41
①口口① |①---|
②口口② |②---|
③口口③ |③---|
口口口口 |----|
42
②口口① |①---|
②口③① |--②-|
口④口口 |--③-|
口口⑤口 |④-⑤-|
43
③口③口 |①---|
口②口② |②---|
①口①口 |③---|
口口口口 |----|
44
口④④口 |①---|
口③③口 |--②-|
②口口① |--③-|
②口口① |--④-|
45
①口口① |①---|
②口口② |②---|
③口口③ |③---|
口口口口 |----|
46
口口④口 |①-②-|
③口口口 |③-④-|
口口口②
口①口口

口口口口
口⑤口⑤
⑥口⑥口 |⑤---|
口⑦口⑦ |⑥-⑦-|
47
④④④④ |①---|
②口②口 |②---|
口①口① |③---|
③口③口 |④---|
48
口④④口 |①---|
口③③口 |--②-|
②口口① |--③-|
②口口① |--④-|
49
①口口① |①---|
②口口② |②---|
③口口③ |③---|
口口口口 |----|
50
①口口② |①---|
①口口② |--②-|
口③③口 |--③-|
口④④口 |--④-|
51
③口口③ |①---|
②④口② |②---|
①口④① |③---|
口口口口 |④---|
52
④④口② |①---|
口口口② |--②-|
①口口口 |--③-|
①口③③ |--④-|
53
口口口③ |①---|
②口口① |②---|
①口口② |③---|
③口口口 |----|
54
①口③③ |①---|
①口口口 |--②-|
口口口② |--③-|
④④口② |--④-|
55
③③口口 |①---|
①①②② |②---|
②②①① |③---|
口口③③ |----|

不確定度: 0

最終更新:2016年04月11日 22:30