Highschool ♡ love
E-girls

EXTREME

Level: 8
BPM: 128
Notes: 572

1
口口口④ |----|
口口③口 |----|
口②口口 |----|
①口口口 |①②③④|
2
①①口口 |①-②-|
口口口口 |--③-|
口口③③ |④---|
④④②② |----|
3
②②口口 |①-②-|
口口③③ |--③-|
④④⑥口 |④---|
口⑤①① |⑤⑥--|
4
口①②口 |①---|
①口口② |--②-|
口③③口 |----|
②口口① |③---|
5
③口②口 |①---|
口③口② |②---|
①口④口 |③---|
口①口④ |④---|
6
口①②口 |①---|
①②①② |--②-|
②①②① |----|
口②①口 |----|
7
口口口口 |--①-|
②口口口 |----|
口③口口 |②---|
①口口口 |--③-|
8
口⑧④口 |①-②-|
⑦口口③ |③-④-|
口⑥②口 |⑤-⑥-|
⑤口口① |⑦-⑧-|
9
②⑨①⑧ |①②③④|
⑪④⑩③ |⑤⑥⑦-|
⑥⑬⑤⑫ |⑧⑨⑩⑪|
口口⑭⑦ |⑫⑬⑭-|
10
口⑥⑤④ |①-②③|
口③⑦口 |④⑤⑥⑦|
口口②口
①口口口

口口口口
口⑫口口
⑧⑪口口 |⑧⑨⑩-|
口⑩口⑨ |⑪-⑫-|
11
口口口口 |①---|
口口口① |②-③-|
口口③①
②口②口

⑤口口口
口口④口
口口口⑤ |④---|
口口口口 |⑤---|
12
口②②① |①---|
口口③口 |②-③-|
①口口口
口口口口

口口口口
⑥④口⑥
⑤⑥⑥⑤ |④-⑤-|
口口口口 |⑥---|
13
②④口口 |①-②-|
口口口口 |③-④-|
口口口口
③口③①

⑥口⑥口
⑤口⑤口
口⑤口⑤ |⑤---|
口⑥口⑥ |⑥---|
14
口①口③ |①-②-|
⑦口②⑦ |③-④-|
口③口⑥ |⑤-⑥-|
⑤口④口 |⑦---|
15
口口口口 |①-②-|
④口③口 |③-④-|
口口②口
口③口①

口口⑤⑤
口口口口
口口口口 |⑤---|
口口⑥⑥ |⑥---|
16
⑥⑥口④ |①-②-|
③②口口 |③-④-|
①口③口 |⑤---|
⑤⑤口口 |⑥---|
17
口④口口 |①-②-|
④③口⑦ |③-④-|
口⑥③口 |--⑤-|
②口①⑤ |⑥-⑦-|
18
①②①口 |①-②-|
口①口口 |③-④-|
③④③口
口③口口

⑦口口⑧
口口口口
口口口口 |⑤-⑥-|
⑤口口⑥ |⑦-⑧-|
19
口②②口 |①---|
口口口③ |②-③-|
①口口①
口口口口

口口口口
口口⑥口
⑥口④口 |④-⑤-|
口⑤口⑦ |⑥-⑦-|
20
①口口口 |①---|
③③口口 |②-③-|
口①口②
②口口口

口口口口
口口口口
口⑤口口 |----|
口④口口 |④-⑤-|
21
口口②② |①---|
口口②口 |②---|
口口①①
口口①口

口口口口
③口口口
⑤口口口 |③---|
③口④口 |④-⑤-|
22
②口口口 |①---|
口口①③ |②---|
⑤②口④ |③-④-|
⑥口口口 |⑤-⑥-|
23
口口口② |①---|
口④③口 |②③④-|
口①①口
口口口口

口口口口
口口口⑤
口⑥口⑦ |⑤-⑥-|
口⑧口口 |⑦-⑧-|
24
③③口① |①---|
②②①口 |②-③-|
口口口口
口口口口

口口④口
口⑤口④
口口⑤口 |----|
口口口口 |④-⑤-|
25
口②口⑤ |①-②-|
口⑥④口 |③-④-|
口③口⑦ |--⑤-|
①口口口 |⑥-⑦-|
26
口口口口 |①-②-|
①口口口 |③-④-|
②口口口 |----|
③④口口 |----|
27
口口口口 |①---|
口①口① |②---|
②口②口
口口口口

口③④③
口口③口
口⑤⑥⑤ |③-④-|
口口⑤口 |⑤-⑥-|
28
口口口口 |①---|
②口②口 |②---|
口口口口
口①口①

③④③口
口③口口
⑤⑥⑤口 |③-④-|
口⑤口口 |⑤-⑥-|
29
口③②口 |--①-|
④口口① |②-③-|
⑤口口口 |④-⑤-|
口⑥⑦口 |⑥-⑦-|
30
③⑦⑥② |①-②-|
⑦③②⑥ |③-④-|
⑧④①⑤ |⑤-⑥-|
④⑧⑤① |⑦-⑧-|
31
①口口① |①---|
口口口口 |----|
口①①口
口口口口

口②口②
口口口口
口④口口 |--②-|
口口③口 |③-④-|
32
①口口口 |①-②-|
口④②④ |③-④-|
①⑤③⑤ |--⑤-|
口⑥口⑥ |--⑥-|
33
口口口口 |①---|
①口口② |②---|
口②①口
口口口口

口③③口
口③③口
口口⑤④ |③---|
口口⑤④ |④-⑤-|
34
②③口口 |①---|
②③口口 |②-③-|
口①口口
口①口口

口口④口
口口④口
⑥⑥口口 |④---|
⑤⑤口口 |⑤-⑥-|
35
口②⑤② |①---|
①①口口 |②---|
口⑥口④ |③-④-|
③口③口 |⑤-⑥-|
36
⑤③口口 |①-②-|
①⑨⑦口 |③-④-|
④⑥②口 |⑤-⑥-|
口口口⑧ |⑦-⑧⑨|
37
②口口① |①---|
口口口口 |②---|
口口口口
口①②口

口口口⑤
口④③⑥
⑥④③口 |③-④-|
⑤口口口 |⑤-⑥-|
38
口②口口 |①---|
①③口口 |②-③-|
口口③①
口口②口

口⑥口口
⑤口④口
口④口⑤ |④---|
口口⑥口 |⑤-⑥-|
39
口口①② |①---|
口口②口 |②---|
口②口口
②①口口

③口④口
口③口④
④口③口 |③---|
口④口③ |④---|
40
③①⑥口 |①---|
①③④口 |②-③-|
⑤⑦②口 |④-⑤-|
⑦⑤①口 |⑥-⑦-|
41
口②③口 |①---|
②①口③ |②---|
③口①② |③---|
口③②口 |----|
42
①③口口 |①---|
③①口口 |②-③-|
口口②口
口口①口

口口口口
口口④口
⑤⑥⑦口 |④-⑤-|
⑤⑥⑦口 |⑥-⑦-|
43
口②①口 |①---|
②①②① |②---|
口③口③ |③---|
口口③口 |----|
44
⑥口①③ |①---|
④口③① |②-③-|
②口⑦⑤ |④-⑤-|
①口⑤⑦ |⑥-⑦-|
45
口③②口 |①---|
③口①② |②---|
②①口③ |③---|
口②③口 |----|
46
口口①口 |①-②-|
③口④② |③-④-|
②④口③
口①口口

⑤⑦⑥口
口口口口
口口口口 |⑤---|
口⑥⑦⑤ |⑥-⑦-|
47
②④④① |①---|
口②①口 |②---|
③①②③ |③---|
①④④② |④---|
48
口口口口 |①---|
①③口口 |②-③-|
口①②口
口③口①

⑦⑦⑥口
口口④口
口⑤口口 |④-⑤-|
⑤口口口 |⑥-⑦-|
49
③口口② |①---|
①②③① |②---|
①③②① |③---|
②口口③ |----|
50
口口口口 |①---|
口口口③ |②-③-|
②口口①
①口①③

口⑥口⑦
口④⑤口
口口⑦口 |④-⑤-|
口口⑤口 |⑥-⑦-|
51
②④④③ |①---|
①③②① |②---|
①②③① |③---|
③④④② |④---|
52
口口口口 |①---|
①③口口 |②-③-|
口①②口
口③口①

⑦⑦⑥口
口口④口
口⑤口口 |④-⑤-|
⑤口口口 |⑥-⑦-|
53
③口口② |①---|
①②③① |②---|
①③②① |③---|
②口口③ |----|
54
口口口口 |①---|
口口口③ |②-③-|
②口口①
①口①③

口⑥口⑦
口④⑤口
口口⑦口 |④-⑤-|
口口⑤口 |⑥-⑦-|
55
②口口③ |①---|
①③②① |②---|
①②③① |③---|
③口口② |----|

不確定度: 0

最終更新:2016年04月11日 22:30