Wake up!
AAA

BASIC

Level: 2
BPM: 176
Notes: 186

1
口口口口 |----|
口口口口 |----|
口口口口 |----|
口口口口 |----|
2
口口口口 |----|
口口口口 |----|
口口口口 |----|
口口口口 |----|
3
口口口口 |①---|
①口口② |----|
口口口口 |②---|
口口口口 |----|
4
口口口口 |①---|
口口口口 |----|
口①①口 |----|
口口口口 |----|
5
口口口口 |①---|
口口口口 |----|
①口口② |②---|
口口口口 |----|
6
口口口口 |①---|
口①①口 |----|
口口口口 |----|
口口口口 |----|
7
口口口口 |①---|
口口口口 |----|
①口口口 |----|
口口口口 |----|
8
口口口口 |①---|
口口口口 |----|
口口口① |----|
口口口口 |----|
9
口口口口 |①---|
口口口口 |----|
口②②口 |②---|
口①①口 |----|
10
口②②口 |①---|
口①①口 |----|
口口口口 |②---|
口口口口 |----|
11
口口口口 |①---|
③口口③ |--②-|
②口口② |----|
①口口① |③---|
12
①口口① |--①-|
口②②口 |----|
口②②口 |②---|
口口口口 |----|
13
口口口口 |①-②-|
口⑤⑥口 |--③-|
口③④口 |④---|
口①②口 |⑤-⑥-|
14
①①①① |----|
口口口口 |----|
口口口口 |----|
口口口口 |①---|
15
口口口口 |----|
口口口口 |----|
口口口口 |----|
口口口口 |----|
16
口口口口 |----|
口口口口 |----|
口口口口 |----|
口口口口 |----|
17
口口口口 |----|
口口口口 |----|
口口口口 |----|
口口口口 |----|
18
口口口口 |----|
口口口口 |----|
口口口口 |----|
口口口口 |----|
19
口口口口 |----|
①②③口 |①---|
口口口口 |②---|
口口口口 |③---|
20
口口口口 |①---|
口口口① |----|
口②②口 |②---|
口口口口 |----|
21
口①①口 |①---|
口口口口 |----|
口口口口 |----|
口口口口 |----|
22
口口口口 |----|
①②口口 |----|
口口口口 |①---|
口口口口 |②---|
23
口②②口 |①---|
口口①口 |----|
口口口口 |②---|
口口口口 |----|
24
②口口② |①---|
口口口口 |----|
①口口① |②---|
口口口口 |----|
25
口口口口 |①---|
①②③④ |②---|
口口口口 |③---|
口口口口 |④---|
26
口口口口 |①---|
口口口口 |②---|
④③②① |③---|
口口口口 |④---|
27
口口口口 |----|
①②③口 |①---|
口口口口 |②---|
口口口口 |③---|
28
口①①口 |①---|
口口口口 |----|
②口口② |②---|
口口口口 |----|
29
①口口① |①---|
口口口口 |----|
口口口口 |----|
口口口口 |----|
30
口口口口 |----|
口口口口 |----|
口①②口 |①---|
口口口口 |②---|
31
口口口口 |①---|
①口口① |----|
口口口口 |----|
口口口口 |----|
32
口口口口 |①---|
口口口口 |----|
①口口① |----|
口口口口 |----|
33
口口口口 |①---|
口②②口 |----|
口①①口 |②---|
口口口口 |----|
34
口①①口 |①---|
口口口口 |----|
口口口口 |----|
口口口口 |----|
35
口口口口 |----|
口③②① |①---|
口口口口 |②---|
口口口口 |③---|
36
口口口口 |①---|
口口口口 |----|
口①①口 |②---|
口②②口 |----|
37
口口口口 |①---|
②口口② |----|
①口口① |②---|
口口口口 |----|
38
①②②① |①---|
口口口口 |----|
口口口口 |②---|
口口口口 |----|
39
口口口口 |----|
口口口口 |①---|
①②③口 |②---|
口口口口 |③---|
40
②口口② |①---|
口①①口 |----|
口口口口 |②---|
口口口口 |----|
41
口口口口 |①---|
②口口② |----|
①口口① |②---|
口口口口 |----|
42
口②②口 |①---|
口口口口 |----|
口口口口 |②---|
口①①口 |----|
43
④口口④ |①---|
③口口③ |②---|
②口口② |③---|
①口口① |④---|
44
口②②口 |①---|
口口口口 |----|
口①①口 |②---|
口口口口 |----|
45
口口口口 |----|
口口口口 |----|
口口口口 |----|
口口口口 |----|
46
口口口口 |①---|
①口口② |----|
口口口口 |②---|
口口口口 |----|
47
口口口口 |①---|
口口口口 |----|
口①①口 |----|
口口口口 |----|
48
口口口口 |①---|
口口口口 |----|
①口口② |②---|
口口口口 |----|
49
口口口口 |①---|
口①①口 |----|
口口口口 |----|
口口口口 |----|
50
口①①口 |①---|
口口口口 |----|
口口口口 |----|
口口口口 |----|
51
口口口口 |①---|
口①①口 |----|
口口口口 |----|
口口口口 |----|
52
口口口口 |①---|
①口口① |----|
②口口② |②---|
口口口口 |----|
53
口口口口 |①---|
口口口口 |----|
口口口口 |----|
①口口① |----|
54
口口口口 |①---|
①口口② |----|
口口口口 |②---|
口口口口 |----|
55
口口口口 |①---|
口口口口 |----|
口①①口 |----|
口口口口 |----|
56
口口口口 |①---|
口口口口 |----|
①口口② |②---|
口口口口 |----|
57
口口口口 |①---|
口①①口 |----|
口口口口 |----|
口口口口 |----|
58
口口口口 |①---|
口口口口 |----|
①口口口 |----|
口口口口 |----|
59
口口口口 |①---|
口口口口 |----|
口口口① |----|
口口口口 |----|
60
口口口口 |①---|
口口口口 |----|
口②②口 |②---|
口①①口 |----|
61
口②②口 |①---|
口①①口 |----|
口口口口 |②---|
口口口口 |----|
62
口口口口 |①---|
③口口③ |--②-|
②口口② |----|
①口口① |③---|
63
①口口① |--①-|
口②②口 |----|
口②②口 |②---|
口口口口 |----|
64
口口口口 |①-②-|
口⑤⑥口 |--③-|
口③④口 |④---|
口①②口 |⑤-⑥-|
65
口口口口 |----|
口口口口 |----|
口口口口 |----|
口口口口 |----|
66
①①①① |①---|
口口口口 |----|
口口口口 |----|
口口口口 |----|

不確定度: 0

最終更新:2016年04月11日 22:29