Wake up!
AAA

ADVANCED

Level: 6
BPM: 176
Notes: 328

1
口口口口 |----|
口口口口 |----|
口口口口 |----|
口口口口 |----|
2
口口口口 |----|
①②③口 |----|
口口口口 |--①-|
口口口口 |②-③-|
3
口口口口 |①---|
口口口口 |----|
①口口② |②---|
口口口口 |----|
4
口①①口 |①---|
口口口口 |----|
口②③④ |--②-|
口口口口 |③-④-|
5
口②②口 |①---|
口口口口 |----|
口口口口 |②---|
口①①口 |----|
6
③口口③ |①---|
②口口② |②-③-|
口①①口 |----|
口口口口 |----|
7
口口口口 |①---|
口①口口 |----|
口①口口 |----|
口口口口 |----|
8
口口口口 |①---|
口口①口 |----|
口口①口 |----|
口口口口 |----|
9
口口口口 |①---|
口口口口 |----|
口②②口 |②---|
口①①口 |----|
10
口②②口 |①---|
口①①口 |----|
口口口口 |②---|
口口口口 |----|
11
⑥口口⑥ |①-②-|
⑤④④⑤ |--③-|
②③③② |④---|
①口口① |⑤-⑥-|
12
口④④口 |--①-|
口口口口 |②---|
②口口② |③---|
①③③① |④---|
13
④⑥⑥④ |①-②-|
③②②③ |--③-|
口①①口 |④---|
口⑤⑤口 |⑤-⑥-|
14
口①①口 |----|
口口口口 |----|
口口口口 |----|
口口口口 |①---|
15
口口口口 |----|
口口口口 |----|
口口口口 |----|
口口口口 |----|
16
口口口口 |----|
口口口口 |----|
口口口口 |----|
口口口口 |----|
17
口口口口 |----|
口口口口 |----|
口口口口 |----|
口口口口 |----|
18
口口口口 |----|
口口口口 |----|
口口口口 |----|
口口口口 |----|
19
口口口口 |--①-|
①②口口 |②---|
④⑥⑤③ |③-④-|
口口口口 |⑤-⑥-|
20
⑤①①⑤ |①---|
②口口③ |②-③-|
口口口口 |--④-|
口④④口 |--⑤-|
21
口口口口 |----|
口口口口 |----|
口口口口 |----|
口口口口 |----|
22
口口口口 |----|
①②③④ |--①-|
口口口⑤ |②-③-|
口口口口 |④-⑤-|
23
口③口口 |①---|
口口④口 |②-③-|
口口①口 |--④-|
⑤②口口 |--⑤-|
24
①口口③ |①---|
④⑤⑥口 |②-③-|
口口口口 |--④-|
口口口② |⑤-⑥-|
25
④②②④ |①---|
口口口① |②---|
口口口口 |③---|
口③③口 |④---|
26
④口口④ |①---|
③口口③ |②---|
②口口② |③---|
①口口① |④---|
27
口口口口 |--①-|
口⑦⑥⑤ |②-③-|
①②③④ |④-⑤-|
口口口口 |⑥-⑦-|
28
③①①口 |①---|
口口口口 |②-③-|
口口口口
②口口口

口⑤⑤口
口口口口
口口口口 |--④-|
口④④口 |--⑤-|
29
口口口口 |----|
口口口口 |----|
口口口口 |----|
口口口口 |----|
30
①口口口 |----|
②③④⑤ |--①-|
口口口口 |②-③-|
口口口口 |④-⑤-|
31
口③③口 |①---|
口口口口 |②-③-|
口④口① |--④-|
口②②⑤ |--⑤-|
32
③口口① |①---|
④⑤⑥口 |②-③-|
口口口口 |--④-|
②口口口 |⑤-⑥-|
33
④③③⑤ |①---|
口口口① |②-③-|
口口口口 |--④-|
口②②口 |--⑤-|
34
口口口口 |----|
口口口口 |----|
口口口口 |----|
口口口口 |----|
35
口口口口 |----|
②口③① |①---|
口口口口 |②---|
口口口口 |③---|
36
口④④口 |①---|
口①口口 |②-③-|
③口口② |--④-|
口口口⑤ |--⑤-|
37
⑤④④⑤ |①---|
口口口口 |②-③-|
③口口② |--④-|
①口口口 |--⑤-|
38
口口口口 |--①-|
口口口口 |②---|
口口口口 |----|
②口口① |----|
39
口口口口 |----|
口③③口 |①---|
口②②口 |②---|
口①①口 |③---|
40
④①①④ |①---|
③口口③ |②---|
②口口② |③---|
口口口口 |④---|
41
口③③口 |①---|
口①①口 |②-③-|
口口口口 |----|
④②②④ |--④-|
42
①③③① |①---|
④口口口 |②-③-|
口口口口 |----|
口②②口 |--④-|
43
口口口⑦ |①-②-|
⑥①②③ |③-④-|
口口口⑤ |--⑤-|
口④④口 |⑥-⑦-|
44
口②②口 |----|
口口口口 |--①-|
口口口口 |②---|
口①①口 |----|
45
口口口口 |----|
①②③口 |----|
口口口口 |--①-|
口口口口 |②-③-|
46
②口口④ |①---|
口口口口 |②---|
①口口③ |③---|
口口口口 |④---|
47
口①①口 |①---|
口②③口 |②-③-|
口④⑤⑥ |--④-|
口口口口 |⑤-⑥-|
48
口④④口 |①---|
②③③② |②---|
口口口口 |③---|
口①①口 |④---|
49
③口口③ |①---|
②口口② |②-③-|
口①①口 |----|
口口口口 |----|
50
口①①口 |①---|
口口口口 |----|
口口口口 |----|
口口口口 |----|
51
口口口口 |①---|
口①①口 |----|
口口口口 |----|
口口口口 |----|
52
⑤口口⑤ |①---|
口③③口 |②-③-|
口②②口 |--④-|
①④④① |--⑤-|
53
口口口口 |----|
①②③口 |----|
口口口口 |--①-|
口口口口 |②-③-|
54
②口口④ |①---|
口口口口 |②---|
①口口③ |③---|
口口口口 |④---|
55
口①①口 |①---|
口②③口 |②-③-|
口④⑤⑥ |--④-|
口口口口 |⑤-⑥-|
56
口④④口 |①---|
②③③② |②---|
口口口口 |③---|
口①①口 |④---|
57
③口口③ |①---|
②口口② |②-③-|
口①①口 |----|
口口口口 |----|
58
口口口口 |①---|
口①口口 |----|
口①口口 |----|
口口口口 |----|
59
口口口口 |①---|
口口①口 |----|
口口①口 |----|
口口口口 |----|
60
口口口口 |①---|
口口口口 |----|
口②②口 |②---|
口①①口 |----|
61
口②②口 |①---|
口①①口 |----|
口口口口 |②---|
口口口口 |----|
62
⑥口口⑥ |①-②-|
⑤④④⑤ |--③-|
②③③② |④---|
①口口① |⑤-⑥-|
63
口④④口 |--①-|
口口口口 |②---|
②口口② |③---|
①③③① |④---|
64
④⑥⑥④ |①-②-|
③②②③ |--③-|
口①①口 |④---|
口⑤⑤口 |⑤-⑥-|
65
口口口口 |----|
口口口口 |----|
口口口口 |----|
口口口口 |----|
66
①①①① |①---|
口口口口 |----|
口口口口 |----|
口口口口 |----|

不確定度: 0

最終更新:2016年04月11日 22:29