KUNG-FU MAMA
seiya-murai feat. ALT

ADVANCED

Level: 7
BPM: 150
Notes: 552

1
口口口口 |----|
口口口口 |----|
口口口口 |----|
口口口口 |----|
2
⑤④③口 |①-②-|
⑥①②口 |③-④-|
⑦⑧口口 |⑤-⑥-|
口口口口 |⑦-⑧-|
3
⑤⑥⑦④ |①-②-|
口口⑧③ |③-④-|
口口①② |⑤-⑥-|
口口口口 |⑦-⑧-|
4
口口口⑧ |①-②-|
④⑤⑥⑦ |③-④-|
③②①口 |⑤-⑥-|
口口口口 |⑦-⑧-|
5
口②①口 |①-②-|
口③口口 |③-④-|
口④口口
口口口口

口口⑥⑥
口口口口
⑤口口口 |--⑤-|
⑤口口口 |⑥---|
6
口口口口 |①---|
口口口口 |----|
口口口② |②---|
口口②① |----|
7
口口口② |①---|
口口口① |----|
口口口口 |②---|
②①口口 |----|
8
①②③④ |①---|
②口口口 |②---|
③口口口 |③---|
④口口口 |④---|
9
口口口口 |①--②|
口③①③ |--③-|
口口②口 |----|
口③①③ |----|
10
口①口⑤ |①-②-|
⑤②①⑥ |③---|
⑥③②④ |--④-|
④口③口 |⑤-⑥-|
11
口口①口 |----|
口①②口 |----|
口②③口 |--①-|
口③口口 |②-③-|
12
②口口口 |----|
③口口② |----|
①口口③ |--①-|
口口口① |②-③-|
13
口口⑤① |①---|
④口口④ |②-③-|
口②口口 |--④-|
①⑤③口 |--⑤-|
14
口①口⑤ |①-②-|
⑤②①⑥ |③---|
⑥③②④ |--④-|
④口③口 |⑤-⑥-|
15
口口①口 |----|
口①②口 |----|
口②③口 |--①-|
口③口口 |②-③-|
16
②口口口 |----|
口口口② |----|
①口口口 |--①-|
口③口① |②-③-|
17
口口③口 |①-②-|
④②④口 |③-④-|
④④①口 |--⑤-|
④口⑤口 |----|
18
①①②② |①-②-|
口①②② |-③--|
⑤口⑥口 |④--⑤|
口④口③ |--⑥-|
19
③⑥④⑤ |①--②|
口②口① |--③-|
口口口口 |④--⑤|
口口口口 |--⑥-|
20
口口口口 |①-②-|
口口口口 |-③--|
口①①口
口③口②

口口口口
口口口⑥
④口⑤口 |④--⑤|
口口口口 |--⑥-|
21
②口⑥④ |①--②|
口①口口 |--③-|
⑤口③口 |④--⑤|
口⑥口口 |--⑥-|
22
口①口⑤ |①-②-|
⑤②①⑥ |③---|
⑥③②④ |--④-|
④口③口 |⑤-⑥-|
23
口口①口 |----|
口①②口 |----|
口②③口 |--①-|
口③口口 |②-③-|
24
②口口口 |----|
③口口② |----|
①口口③ |--①-|
口口口① |②-③-|
25
口口⑥① |①-②-|
⑤口②⑤ |③-④-|
口③口口 |--⑤-|
①⑥④口 |--⑥-|
26
口①口⑤ |①-②-|
⑤②①⑥ |③---|
⑥③②④ |--④-|
④口③口 |⑤-⑥-|
27
口口①口 |----|
口①②口 |----|
口②③口 |--①-|
口③口口 |②-③-|
28
②口口口 |----|
口口口② |----|
①口口口 |--①-|
口③口① |②-③-|
29
口口③口 |①-②-|
口②口口 |③-④-|
口⑤①口 |⑤-⑥-|
⑥口④口 |----|
30
①①②② |①-②-|
口①②② |-③--|
⑤口⑥口 |④--⑤|
口④口③ |--⑥-|
31
③⑥④⑤ |①--②|
口②口① |--③-|
口口口口 |④--⑤|
口口口口 |--⑥-|
32
口口口口 |①-②-|
口口口口 |-③--|
口①①口
口③口②

口口口口
口口口⑥
④口⑤口 |④--⑤|
口口口口 |--⑥-|
33
②⑤③④ |①--②|
口①口口 |--③-|
口口口口 |④--⑤|
口⑥口口 |--⑥-|
34
口⑤口口 |①---|
⑤口④口 |--②-|
口④②③ |--③-|
口口③① |④-⑤-|
35
口口口口 |----|
口口口口 |----|
④①口口 |①-②-|
②③口口 |③-④-|
36
口口②③ |①---|
口①④② |--②-|
口⑤①口 |--③-|
口口口口 |④-⑤-|
37
口口口口 |----|
口口口口 |----|
口口②口 |----|
口口口① |①-②-|
38
②④口口 |①---|
④③⑤口 |--②-|
口⑤口① |③-④-|
口口①口 |--⑤-|
39
①①③③ |----|
②①口④ |----|
口②口口 |①-②-|
口口口口 |③-④-|
40
口口口口 |①---|
口口①口 |----|
口口口① |----|
口口口口 |----|
41
口口口口 |----|
口口口口 |----|
③②口口 |--①-|
①③口口 |②-③-|
42
口⑤口口 |①---|
⑤口④口 |--②-|
口④②③ |--③-|
口口③① |④-⑤-|
43
口口口口 |----|
口口口口 |----|
④①口口 |①-②-|
②③口口 |③-④-|
44
口口②③ |①---|
口①④② |--②-|
口⑤①口 |--③-|
口口口口 |④-⑤-|
45
口口口口 |----|
口口口口 |----|
口口②口 |----|
口口口① |①-②-|
46
②口口口 |①---|
口口口口 |--②-|
口口口①
口口①口

口④口口
④③⑤口
口⑤口⑥ |③-④-|
口口⑥口 |⑤-⑥-|
47
口口口口 |①---|
口③口口 |②---|
口口②口 |③---|
口口口① |----|
48
口口口口 |----|
口口③口 |①---|
②①①② |②---|
口口口口 |③---|
49
④④④④ |①---|
③①口③ |②---|
口口口口 |③---|
口②②口 |④---|
50
口口④④ |--①-|
口口③口 |②③-④|
口口②口
①①口口

口口口口
口⑥口口
口⑦口⑤ |--⑤-|
⑧⑧口口 |⑥⑦-⑧|
51
口口④④ |--①-|
①口③口 |②③-④|
口口②口 |----|
⑤⑤口口 |⑤---|
52
⑤⑤口口 |--①②|
⑥④⑦② |③④-⑤|
口③口⑧ |--⑥-|
口口①① |⑦-⑧-|
53
口⑥口⑤ |①---|
⑦口④口 |②--③|
②口③口 |④-⑤-|
①①口口 |⑥-⑦-|
54
口口④④ |--①-|
口口③口 |②③-④|
口口②口
①①口口

口口口口
口⑥口口
口⑦口⑤ |--⑤-|
⑧⑧口口 |⑥⑦-⑧|
55
口口④④ |--①-|
①口③口 |②③-④|
口口②口 |----|
⑤⑤口口 |⑤---|
56
⑤⑤口口 |--①②|
⑥④⑦② |③④-⑤|
口③口⑧ |--⑥-|
口口①① |⑦-⑧-|
57
口⑥口⑤ |①---|
⑦口④口 |②--③|
②口③口 |④-⑤-|
①①口口 |⑥-⑦-|
58
口口④④ |--①-|
口口③口 |②③-④|
口口②口
①①口口

口口口口
口⑥口口
口⑦口⑤ |--⑤-|
⑧⑧口口 |⑥⑦-⑧|
59
口口④④ |--①-|
①口③口 |②③-④|
口口②口 |----|
⑤⑤口口 |⑤---|
60
⑤⑤口口 |--①②|
⑥④⑦② |③④-⑤|
口③口⑧ |--⑥-|
口口①① |⑦-⑧-|
61
口⑥口⑤ |①---|
⑦口④口 |②--③|
②口③口 |④-⑤-|
①①口口 |⑥-⑦-|
62
口口④④ |--①-|
口口③口 |②③-④|
口口②口
①①口口

口口口口
口⑥口⑤
口⑦口口 |--⑤-|
⑧⑧口口 |⑥⑦-⑧|
63
⑤⑥④④ |--①-|
①口③口 |②③-④|
口口②口 |--⑤-|
口口口口 |⑥---|
64
⑤⑤口口 |--①②|
⑥④⑦② |③④-⑤|
口③口⑧ |--⑥-|
口口①① |⑦-⑧-|
65
口口口口 |①---|
⑦⑥④⑤ |②--③|
②口③口 |④-⑤-|
①①口口 |⑥-⑦-|
66
①①①① |①---|
口口口口 |----|
口口口② |②---|
口口②口 |----|
67
口口口② |①---|
口口口① |----|
口口口口 |②---|
②①口口 |----|
68
①②③④ |①---|
②口口口 |②---|
③口口口 |③---|
④口口口 |④---|
69
口口口④ |①---|
口口口③ |②---|
口口口② |③---|
④③②① |④---|
70
①②口口 |①---|
②口口口 |----|
口口口口 |②---|
口口口口 |----|
71
口口①② |①---|
口口口口 |----|
①口口口 |②---|
②口口口 |----|
72
口口口④ |①---|
口口口③ |②---|
口口口② |③---|
④③②① |④---|
73
①②③④ |①---|
②口口口 |②---|
③口口口 |③---|
④口口口 |④---|
74
⑤④③口 |①-②-|
⑥①②口 |③-④-|
⑦⑧口口 |⑤-⑥-|
口口口口 |⑦-⑧-|
75
⑤⑥⑦④ |①-②-|
口口⑧③ |③-④-|
口口①② |⑤-⑥-|
口口口口 |⑦-⑧-|
76
口口口⑧ |①-②-|
④⑤⑥⑦ |③-④-|
③②①口 |⑤-⑥-|
口口口口 |⑦-⑧-|
77
口②①口 |①-②-|
口③⑧⑦ |③-④-|
口④⑤⑥ |⑤-⑥-|
口口口口 |⑦-⑧-|


不确定度: 0

タグ:

+ タグ編集
  • タグ:

このサイトはreCAPTCHAによって保護されており、Googleの プライバシーポリシー利用規約 が適用されます。

最終更新:2012年11月10日 14:21