Wake up!
AAA

EXTREME

Level: 8
BPM: 176
Notes: 525

1
口口口口 |----|
口口口口 |----|
口口口口 |----|
口口口口 |----|
2
口口口口 |----|
口口③口 |----|
口②口口 |--①-|
口口①口 |②-③-|
3
①口口② |①---|
①口口② |②---|
③口口④ |③---|
③口口④ |④---|
4
口口⑥③ |①---|
⑤口②③ |②-③-|
口①②④ |--④-|
口①口口 |⑤-⑥-|
5
口口口④ |①---|
口③②④ |②---|
①③②口 |③---|
①口口口 |④---|
6
④③③口 |①---|
⑤⑥口口 |②-③-|
②口口② |--④-|
口①①口 |⑤-⑥-|
7
口口口⑤ |①-②-|
口口⑦⑥ |③-④-|
④①口口 |--⑤-|
③②口口 |⑥-⑦-|
8
口口口口 |①-②-|
口口口口 |③-④-|
⑥⑥①④ |----|
⑤⑤②③ |⑤-⑥-|
9
口口②② |①---|
①①口口 |②---|
④口口④ |③---|
口口③③ |④---|
10
②④④② |①---|
③口口③ |②---|
口①①口 |③---|
口口口口 |④---|
11
②⑥⑥② |①-②-|
④②②④ |--③-|
①⑤⑤① |④---|
③①①③ |⑤-⑥-|
12
②④④② |--①-|
③②②③ |②---|
①④④① |③---|
③①①③ |④---|
13
②口口② |①-②-|
口②②口 |--③-|
①口口①
③①①③

口口口口
④口口④
⑥⑤⑤⑥ |④---|
口⑥⑥口 |⑤-⑥-|
14
口口②口 |--①-|
⑤①口⑥ |②---|
口⑦⑦口 |③④⑤⑥|
③口口④ |⑦---|
15
①口口① |①---|
③④⑤⑥ |②---|
口口口口 |③-④-|
口②②口 |⑤-⑥-|
16
口口口口 |①-②-|
口⑤⑥口 |③-④-|
④③②① |--⑤-|
口口口口 |⑥---|
17
④口口④ |①---|
口口口口 |----|
③②②③ |②---|
口①①口 |③-④-|
18
口口①口 |--①-|
口②④口 |②-③-|
口⑤③口 |--④-|
口口⑥口 |⑤-⑥-|
19
④口口③ |①-②-|
⑥口⑤② |③---|
口口⑦口 |④-⑤-|
①口口口 |⑥-⑦-|
20
⑤口③⑤ |①---|
口②口口 |②-③-|
①口口口 |--④-|
口④④口 |--⑤-|
21
口口口口 |----|
口口口③ |①---|
口口②口 |②---|
口口口① |③---|
22
⑦⑥口口 |①---|
⑤口①口 |②-③-|
口④口③ |④-⑤-|
③口②口 |⑥-⑦-|
23
口口③口 |①---|
口①口口 |②-③-|
口⑤②口 |--④-|
口口口④ |--⑤-|
24
③口口③ |①---|
口⑥①口 |②-③-|
②口⑤② |--④-|
口④口口 |⑤-⑥-|
25
③口①③ |①---|
口口口口 |②---|
④口口④ |③---|
②口口② |④---|
26
④口口④ |①---|
①③③① |②---|
口②②口 |③---|
口口口口 |④---|
27
口口口口 |--①-|
③④口口 |②-③-|
②⑤口口 |④-⑤-|
①⑥⑦口 |⑥-⑦-|
28
口⑤⑤② |①---|
口口口③ |②-③-|
口口①口 |--④-|
④口口④ |--⑤-|
29
口口口口 |----|
口口③口 |①---|
口口口② |②---|
口口①口 |③---|
30
⑥⑤口① |①---|
④口口② |--②-|
口③口口 |③-④-|
②口口② |⑤-⑥-|
31
口口③口 |①---|
④①口④ |②-③-|
口⑤口口 |--④-|
口口②口 |--⑤-|
32
③口口③ |①---|
④⑤⑥口 |②-③-|
口口①口 |--④-|
②口口② |⑤-⑥-|
33
⑤口③⑤ |①---|
口口口① |②-③-|
口口②口 |--④-|
口④④口 |--⑤-|
34
口口③口 |①-②-|
口④⑤口 |--③-|
口⑥⑦② |----|
口口口① |④⑤⑥⑦|
35
②口口口 |①---|
口口口③ |②---|
④口口口 |③---|
①口口① |④---|
36
口口口口 |①---|
口④④口 |②-③-|
口口③口 |--④-|
口②⑤① |--⑤-|
37
⑤口口⑤ |①---|
口口口口 |②-③-|
④①③④ |--④-|
口②口口 |--⑤-|
38
口口口口 |--①-|
口①口口 |②---|
口口②口 |----|
口口口口 |----|
39
口口口口 |----|
口③③口 |①---|
口②②口 |②---|
口①①口 |③---|
40
④①①④ |①---|
③口口③ |②---|
②口口② |③---|
口口口口 |④---|
41
口③③口 |①---|
口②②口 |②-③-|
口口口口 |----|
④①①④ |--④-|
42
③④④③ |①---|
①口口① |②-③-|
②口口② |----|
口口口口 |--④-|
43
⑤口口⑤ |①-②-|
①⑥⑥① |③-④-|
⑦②②⑦ |--⑤-|
③④④③ |⑥-⑦-|
44
口②②口 |----|
口口口口 |--①-|
口口口口 |②---|
口①①口 |----|
45
口口⑤⑤ |①---|
⑥口③③ |②---|
口⑤①② |③-④-|
④口②① |⑤-⑥-|
46
④口口④ |①---|
口①口口 |②---|
口口①口 |③---|
③②②③ |④---|
47
口③③口 |①---|
⑥②②⑥ |②-③-|
①⑤⑤① |--④-|
口④④口 |⑤-⑥-|
48
②④④② |①---|
口口口口 |②---|
口口口口 |③---|
①③③① |④---|
49
④⑤⑥口 |①---|
口③③口 |②-③-|
口②②口 |--④-|
①口口① |⑤-⑥-|
50
口口口① |①---|
②③口口 |②-③-|
口口口口 |--④-|
口⑥⑤④ |⑤-⑥-|
51
口⑥口口 |①---|
④口口⑤ |②-③-|
口口③② |--④-|
①口口口 |⑤-⑥-|
52
口口①口 |①---|
口口口口 |②-③-|
口②②口
口③③口

⑤⑤⑤⑤
口口口口
口口口口 |--④-|
④口口④ |--⑤-|
53
口口口口 |----|
口口③口 |----|
口②口口 |--①-|
口口①口 |②-③-|
54
①口口② |①---|
①口口② |②---|
③口口④ |③---|
③口口④ |④---|
55
口口⑥③ |①---|
⑤口②③ |②-③-|
口①②④ |--④-|
口①口口 |⑤-⑥-|
56
口口口④ |①---|
口③②④ |②---|
①③②口 |③---|
①口口口 |④---|
57
④③③口 |①---|
⑤⑥口口 |②-③-|
②口口② |--④-|
口①①口 |⑤-⑥-|
58
口口口⑤ |①-②-|
口口⑦⑥ |③-④-|
④①口口 |--⑤-|
③②口口 |⑥-⑦-|
59
口口口口 |①-②-|
口口口口 |③-④-|
⑥⑥①④ |----|
⑤⑤②③ |⑤-⑥-|
60
口口②② |①---|
①①口口 |②---|
④口口④ |③---|
口口③③ |④---|
61
②④④② |①---|
③口口③ |②---|
口①①口 |③---|
口口口口 |④---|
62
②⑥⑥② |①-②-|
④②②④ |--③-|
①⑤⑤① |④---|
③①①③ |⑤-⑥-|
63
②④④② |--①-|
③②②③ |②---|
①④④① |③---|
③①①③ |④---|
64
②口口② |①-②-|
口②②口 |--③-|
①口口①
③①①③

口口口口
④口口④
⑥⑤⑤⑥ |④---|
口⑥⑥口 |⑤-⑥-|
65
口口口口 |----|
口口口口 |----|
口口口口 |----|
口口口口 |----|
66
口口口口 |①---|
口①①口 |----|
口①①口
口口口口

口口口口
口口③口
口②口口 |----|
口口口口 |--②③|
67
①口口① |①---|
口口口口 |----|
口口口口 |----|
口口口口 |----|

不確定度: 0

最終更新:2016年04月11日 22:28