不可逆リプレイス
MY FIRST STORY

BASIC

Level: 3
BPM: 200
Notes: 252

1
口口口口 |----|
口口口口 |----|
口口口口 |----|
口口口口 |----|
2
口口口口 |----|
口口口口 |----|
口口口口 |----|
口口口口 |----|
3
口口口口 |①---|
口口①口 |----|
口口口口 |----|
口口口口 |----|
4
口口口口 |----|
口口口口 |----|
口口口口 |----|
口口口口 |----|
5
口口口口 |①---|
口①口口 |----|
口口口口 |----|
口口口口 |----|
6
口口口口 |----|
口口口口 |----|
口口口口 |----|
口口口口 |----|
7
口口口口 |①---|
口口口口 |----|
口口①口 |----|
口口口口 |----|
8
口口口口 |----|
口口口口 |----|
口口口口 |----|
口口口口 |----|
9
口口口口 |①---|
口口口口 |----|
口①口口 |----|
口口口口 |----|
10
口口口口 |----|
口口口口 |----|
口口口口 |----|
口口口口 |----|
11
口口口口 |----|
口口口口 |----|
口口口口 |----|
口口口口 |----|
12
口口口口 |----|
口口口口 |----|
口口口口
口口口口
13
口口口口 |①---|
口口②① |----|
口口口口 |②---|
口口口口 |----|
14
口口口口 |①---|
②①口口 |----|
口口口口 |②---|
口口口口 |----|
15
口口口口 |①---|
口口口口 |----|
①②口口 |②---|
口口口口 |----|
16
口口口口 |①---|
口口口口 |----|
口口①② |②---|
口口口口 |----|
17
①口口① |①---|
口口口口 |----|
口口口口 |----|
口口口口 |----|
18
口口口口 |①---|
①口口① |----|
口口口口 |----|
口口口口 |----|
19
口口口口 |①---|
口②①口 |②---|
口④③口 |③---|
口口口口 |④---|
20
口口口口 |----|
①口口① |----|
口口口口 |----|
口口口口 |--①-|
21
口口口口 |----|
口口①口 |①---|
③口②③ |②---|
口口口口 |--③-|
22
③口口③ |----|
口②口口 |①---|
口①口口 |②---|
口口口口 |--③-|
23
口②①口 |----|
口口③口 |①---|
口口口口 |②---|
口口口口 |③---|
24
口口口口 |①---|
口口口口 |②---|
④①②④ |③---|
口③口口 |--④-|
25
口口口口 |----|
口①口口 |①---|
③②口③ |②---|
口口口口 |--③-|
26
口口口口 |----|
口口②口 |①---|
口口①口 |②---|
③口口③ |--③-|
27
口口口口 |----|
口③口口 |①---|
口②口口 |②---|
口①口口 |③---|
28
口口口口 |①---|
口口③口 |②---|
④口②④ |③---|
口口①口 |--④-|
29
口口口口 |----|
③②口③ |①---|
口①口口 |②---|
口口口口 |--③-|
30
③口口③ |----|
口口①口 |①---|
口口②口 |②---|
口口口口 |--③-|
31
口①口口 |----|
口③②口 |①---|
口口口口 |②---|
口口口口 |③---|
32
口口口口 |①---|
口口口口 |②---|
④②①④ |③---|
口口③口 |--④-|
33
口口口口 |----|
③①口③ |①---|
口②口口 |②---|
口口口口 |--③-|
34
口口口口 |----|
口口②口 |①---|
口口①口 |②---|
③口口③ |--③-|
35
①口口① |----|
口口口口 |----|
口口口口 |①---|
口②②口 |--②-|
36
口①①口 |----|
口口口口 |----|
口口口口 |①---|
口口口口 |----|
37
②口口口 |①---|
①口口① |----|
①口口① |----|
口口口口 |②---|
38
口口②口 |①---|
口①口③ |②---|
口口④口 |③---|
口口口口 |④---|
39
口口口口 |①---|
口口口口 |----|
口②口口 |----|
口①口口 |②---|
40
口②口口 |①---|
①口③口 |②---|
口口口④ |③---|
口口口口 |④---|
41
口口口口 |①---|
口口口口 |----|
口②②口 |----|
口口①口 |②---|
42
口口口口 |----|
①口口口 |----|
①口口口 |----|
口口口口 |①---|
43
口口口口 |①---|
口②③① |--②-|
口②③① |----|
口口口口 |③---|
44
口口口口 |----|
口口口口 |----|
①①①① |----|
口口口口 |--①-|
45
①①口口 |----|
②②口口 |①---|
③③口口 |②---|
口口口口 |③---|
46
口口口口 |①---|
口口②① |②---|
④④②① |③---|
③③口口 |④---|
47
口口②② |①---|
①①③③ |②---|
口口④④ |③---|
口口口口 |④---|
48
口口口口 |①---|
口口口口 |②---|
①②④④ |③---|
①②③③ |④---|
49
口②②口 |①---|
口口①① |----|
口口口口 |----|
口口口口 |②---|
50
口口口口 |----|
口口口口 |----|
口①口口 |①---|
口口口口 |----|
51
②口口① |①---|
④口口③ |②---|
口口口口 |③---|
口口口口 |④---|
52
口口口口 |①---|
口口口口 |②---|
②口口① |③---|
④口口③ |④---|
53
口口口口 |①---|
口口①口 |----|
口口口口 |----|
口口口口 |----|
54
口口口口 |----|
口口口口 |----|
口口口口 |----|
口口口口 |----|
55
口口口口 |----|
口口口口 |----|
口口口口 |----|
口口口口 |----|
56
口口口口 |----|
口口口口 |----|
口口口② |①---|
口口口① |②---|
57
口口口口 |①---|
口口口① |--②-|
口③②口 |----|
口口口口 |③---|
58
口口口口 |----|
口口口口 |----|
②口口口 |①---|
①口口口 |②---|
59
口口口口 |①---|
①③③口 |--②-|
口②口口 |----|
口口口口 |③---|
60
口口口口 |----|
口口口口 |----|
口②口口 |①---|
口口①口 |②---|
61
②②②② |①---|
口口口口 |----|
①口口① |----|
①口口① |②---|
62
口口口口 |----|
②口口② |----|
①口口① |①---|
口口口口 |②---|
63
①口口① |①---|
口②②口 |②---|
口③③口 |③---|
口④④口 |④---|
64
口口口口 |①---|
口口口口 |----|
①②口① |②---|
口口③口 |③---|
65
②②②② |①---|
口口口口 |----|
①口口① |----|
①口口① |②---|
66
口口口口 |----|
口①口口 |----|
口口②口 |①---|
口口口口 |②---|
67
口口口口 |①---|
①口口① |②---|
②④④② |③---|
口③③口 |④---|
68
口口口口 |①---|
口①①口 |----|
口口③口 |②---|
口②口口 |③---|
69
②②②② |①---|
口口口口 |----|
①口口① |----|
①口口① |②---|
70
口口口口 |----|
②口口② |----|
①口口① |①---|
口口口口 |②---|
71
①口口① |①---|
口②②口 |②---|
口③③口 |③---|
口④④口 |④---|
72
口口口口 |①---|
口口口口 |----|
①②口① |②---|
口口③口 |③---|
73
口口④口 |①---|
口③口口 |②---|
口口②口 |③---|
口①口口 |④---|
74
①口口口 |①---|
口口口② |②---|
③口口口 |③---|
口口口④ |④---|
75
口口①口 |----|
口口口口 |----|
口口口口 |----|
口口口口 |-①--|
76
口口口口 |-①--|
口①口口 |-②--|
口口②口 |----|
口口口口 |----|

不確定度: 0

最終更新:2016年04月11日 22:23