不可逆リプレイス
MY FIRST STORY

ADVANCED

Level: 7
BPM: 200
Notes: 418

1
口口口口 |----|
口口口口 |----|
口口口口 |----|
口口口口 |----|
2
口口口口 |----|
口②①口 |----|
口口口口 |①---|
口口口口 |②---|
3
③③①① |①---|
口口口口 |②---|
口口口口 |----|
口口②② |③---|
4
口口口口 |①---|
口口口口 |----|
口口②口 |②---|
①①口口 |----|
5
口口①① |①---|
口②②口 |②---|
③③口口 |③---|
口④④口 |④---|
6
口口口口 |①---|
口口口口 |----|
③口①① |②---|
②口口口 |③---|
7
④口口① |①---|
口口③② |②-③-|
口口口口 |----|
口口口口 |④---|
8
口口口口 |①-②-|
①②口口 |----|
口④④口 |③---|
口③③口 |④---|
9
口口口口 |①---|
②①①② |--②-|
③口口③ |----|
口口口口 |③---|
10
口口口口 |----|
口口口口 |----|
口口口口 |----|
口口口口 |----|
11
口口口口 |----|
口口口口 |----|
口口口口 |----|
口口口口 |----|
12
口口口口 |----|
口口口口 |----|
口口口口
口口口口
13
②口①① |①-②-|
④口口③ |③-④-|
⑥口口⑤ |⑤-⑥-|
⑧口口⑦ |⑦-⑧-|
14
口②①口 |①-②-|
口④③口 |③-④-|
口⑥⑤口 |⑤-⑥-|
口⑧⑦口 |⑦-⑧-|
15
②口口① |①-②-|
④口口③ |③-④-|
⑥口口⑤ |⑤-⑥-|
⑧口口⑦ |⑦-⑧-|
16
口②①口 |①-②-|
口④③口 |③-④-|
口⑥⑤口 |⑤-⑥-|
口⑧⑦口 |⑦-⑧-|
17
①口口① |①---|
②口口② |--②-|
③口口③ |----|
口口口口 |③---|
18
口口口口 |①---|
口①①口 |--②-|
口②②口 |----|
口③③口 |③---|
19
口②①口 |①-②-|
口④③口 |③-④-|
口⑥⑤口 |⑤-⑥-|
口⑧⑦口 |⑦-⑧-|
20
口口口口 |----|
口口口① |--①-|
口②②口 |----|
口口口口 |--②-|
21
③口口口 |----|
②④④口 |①---|
①口口口 |②---|
口口口口 |③-④-|
22
口口口口 |----|
口④④① |①---|
口口口② |②---|
口口口③ |③-④-|
23
③口口口 |--①-|
口口口口 |②---|
口④①口 |③---|
口②口口 |④---|
24
口口⑥⑥ |①---|
口③①口 |②---|
口口④口 |③-④-|
口⑤口② |⑤-⑥-|
25
④④口口 |----|
①口③口 |①---|
口口②口 |②-③-|
口口口口 |--④-|
26
④口口④ |----|
口③口① |①---|
口②口口 |②-③-|
口口口口 |--④-|
27
口口口口 |----|
口口口口 |①---|
口③②① |②---|
口口口口 |③---|
28
①②③口 |①---|
①②③口 |②---|
口④④口 |③---|
口口口口 |--④-|
29
③口口口 |----|
②④④口 |①---|
①口口口 |②---|
口口口口 |③-④-|
30
口口口口 |----|
口④④① |①---|
口口口② |②---|
口口口③ |③-④-|
31
③口口口 |--①-|
口口口口 |②---|
口④①口 |③---|
口②口口 |④---|
32
口口⑥⑥ |①---|
口③①口 |②---|
口口④口 |③-④-|
口⑤口② |⑤-⑥-|
33
④④口口 |----|
①口③口 |①---|
口口②口 |②-③-|
口口口口 |--④-|
34
口口口口 |----|
口③口① |①---|
④②④口 |②-③-|
口口口口 |--④-|
35
③口③口 |--①-|
②口②口 |--②-|
口④口④ |③---|
口①口① |--④-|
36
口③口③ |--①-|
口②口② |--②-|
口口口口 |③---|
①口①口 |----|
37
口口②口 |①---|
口③④口 |----|
①①①① |--②-|
口口口口 |③-④-|
38
口口口⑥ |①-②-|
口口口⑤ |③-④-|
①口口② |--⑤-|
口③④口 |--⑥-|
39
口①口口 |----|
口③②口 |----|
口口口口 |--①-|
口口口口 |②-③-|
40
口⑦⑦口 |①-②-|
⑥口口⑤ |③-④-|
②口口① |⑤-⑥-|
口④③口 |--⑦-|
41
口口口口 |----|
口②①口 |----|
口①②口 |----|
口口口口 |①-②-|
42
①口口① |----|
口口口口 |----|
口口口口 |----|
口口口口 |①---|
43
口口口口 |①---|
①口口① |--②-|
口②②口 |----|
③口口③ |③---|
44
口口口口 |----|
①口口① |----|
①口口① |----|
口口口口 |--①-|
45
口口口口 |----|
口③③口 |①---|
口②②口 |②---|
口①①口 |③---|
46
口③②① |①-②-|
④口口④ |③-④-|
⑤口口⑤ |--⑤-|
⑥口口⑥ |--⑥-|
47
口口口① |----|
②⑥口口 |①-②-|
口口⑤③ |③-④-|
口④口口 |⑤-⑥-|
48
⑤⑤①④ |①---|
②口口口 |②-③-|
口口⑥⑥ |--④-|
③口口口 |⑤-⑥-|
49
口口①口 |----|
口口①口 |----|
口②口口 |----|
口②口口 |①-②-|
50
口口口口 |----|
②口口① |----|
①口口② |①---|
口口口口 |--②-|
51
②口口② |----|
④①①④ |①-②-|
口口口口 |--③-|
口③③口 |--④-|
52
口②②口 |--①-|
口口口口 |--②-|
口③③口 |----|
①口口① |③---|
53
口口口口 |①---|
①①①① |----|
口口口口 |----|
口口口口 |----|
54
口口口① |----|
口③口口 |----|
口口口② |①-②-|
口④口口 |③-④-|
55
口口口口 |----|
口口口口 |----|
口口口口 |----|
①①①口 |--①-|
56
口口口口 |----|
②口②口 |----|
口①口① |①---|
口口口口 |②---|
57
口①口① |①---|
口②口② |--②-|
口③口③ |----|
口口口口 |③---|
58
口口口口 |----|
口口口口 |----|
②口②口 |①---|
口①口① |②---|
59
口①①① |①---|
口②②② |--②-|
口③③③ |----|
口口口口 |③---|
60
口①②口 |----|
口口口口 |----|
口口口口 |①---|
口②①口 |②---|
61
④口口① |①---|
④口②① |②-③-|
①③口④ |----|
①口口④ |④---|
62
④口口③ |①-②-|
口②口口 |----|
口口①口 |③---|
③口口④ |④---|
63
口①①口 |①---|
口④②口 |②-③-|
口口口口 |--④-|
③口口⑤ |⑤---|
64
③口口② |①---|
①口口① |----|
口口口口 |②---|
②口口③ |③---|
65
口口②口 |①---|
④①①④ |②-③-|
④①①④ |----|
口③口口 |④---|
66
④①口③ |①-②-|
口口口口 |----|
口口口口 |③---|
③口②④ |④---|
67
口口口口 |①---|
口③④① |②-③-|
①⑤②口 |--④-|
口口口口 |⑤---|
68
口②③口 |①---|
①口口口 |----|
口口口① |②---|
口③②口 |③---|
69
④口口① |①---|
④口②① |②-③-|
①③口④ |----|
①口口④ |④---|
70
口④③口 |①-②-|
⑥②口⑤ |----|
口口①口 |③-④-|
口口口口 |⑤-⑥-|
71
口口口④ |①---|
口口口口 |②-③-|
口口①口 |----|
③口口② |④---|
72
口④②③ |①---|
①①①① |----|
口口口口 |②-③-|
③②④口 |--④-|
73
①口④口 |①---|
③口口② |②---|
③口口② |③---|
口⑤口① |④-⑤-|
74
②口口② |----|
③口口③ |①---|
④①①④ |②-③-|
⑤口口⑤ |④-⑤-|
75
口口口口 |----|
口口①口 |----|
口口口口 |----|
口口口口 |-①--|
76
口口口口 |-①--|
口口口口 |-②--|
口①口口 |----|
②口口口 |----|

不確定度: 0

最終更新:2016年04月11日 22:22