不可逆リプレイス
MY FIRST STORY

EXTREME

Level: 9
BPM: 200
Notes: 541

1
口口口口 |----|
口口口口 |----|
口口口口 |----|
口口口口 |----|
2
口口口口 |----|
口②口口 |----|
口口口口 |①---|
①口口口 |②---|
3
口口口① |①---|
④口口口 |②-③-|
②口口口 |----|
口③口口 |④---|
4
口口口口 |①-②-|
口⑤口口 |----|
口口④① |③-④-|
口③②口 |⑤---|
5
口口口口 |①---|
口口①口 |②-③-|
②口④④ |----|
口③口口 |④---|
6
口口口口 |①---|
口口口③ |----|
②口③口 |②---|
口②①① |③---|
7
①①④④ |①---|
口口②口 |②-③-|
口口口③ |----|
口口口口 |④---|
8
口口口口 |①-②-|
口①口口 |----|
②口④④ |③---|
口口③③ |④---|
9
口口口口 |①---|
口②①① |--②-|
②③口口 |----|
③口口口 |③---|
10
口口口口 |----|
口口口口 |----|
口口口口 |----|
口口口口 |----|
11
口口口口 |----|
口口口口 |----|
口口口口 |----|
口口口口 |----|
12
口口口口 |----|
口口口口 |----|
口口口口
口口口口
13
口口口⑦ |①-②-|
⑧口⑤③ |③-④-|
⑥②⑦口 |⑤-⑥-|
④①③⑤ |⑦-⑧-|
14
②口③口 |--①-|
口④⑥① |②---|
⑤口口口 |③-④-|
口口①⑥ |⑤-⑥-|
15
口⑦④⑥ |①-②-|
口⑤⑧② |③-④-|
口③⑥④ |⑤-⑥-|
口①②⑧ |⑦-⑧-|
16
①口口口 |----|
口②口口 |----|
口口③口 |①-②-|
口口口口 |③---|
17
口口口① |①---|
②口口① |--②-|
②③③① |----|
②口口口 |③---|
18
①①①口 |①---|
口口口口 |--②-|
③口口③ |----|
口②②② |③---|
19
口⑫⑨① |①②③④|
⑥②⑦③ |⑤⑥⑦⑧|
⑭④⑪⑬ |⑨⑩⑪⑫|
⑧⑩⑮⑤ |⑬⑭⑮-|
20
口口口③ |----|
口④②④ |--①②|
口①④口 |③---|
口④口④ |--④-|
21
口④口口 |--①-|
②口⑤口 |②-③-|
口③口⑦ |④-⑤-|
①口⑥口 |⑥-⑦-|
22
①⑦④口 |--①-|
⑦③⑦⑥ |②-③-|
②⑦⑤口 |④-⑤-|
口口口口 |⑥-⑦-|
23
③口口① |--①-|
口⑤口口 |②---|
④口口② |③-④-|
口⑥口口 |⑤-⑥-|
24
口口①③ |①-②-|
⑦⑧⑤⑧ |③-④-|
口口②④ |⑤-⑥-|
口⑧⑥⑧ |⑦-⑧-|
25
①③口口 |--①-|
⑥口⑥口 |②-③-|
②④⑤口 |④-⑤-|
⑥口⑥口 |--⑥-|
26
口口③① |--①-|
口⑥⑥口 |②-③-|
口⑤④② |④-⑤-|
口⑥⑥口 |--⑥-|
27
口⑥④② |--①-|
⑦口口口 |②-③-|
口⑤③① |④-⑤-|
口口口口 |⑥-⑦-|
28
⑦口⑦口 |①-②-|
口②④⑥ |③-④-|
⑦口⑦口 |⑤-⑥-|
①③⑤口 |--⑦-|
29
口⑦口口 |--①-|
④口②⑤ |②-③-|
口口口口 |④-⑤-|
口③⑥① |⑥-⑦-|
30
⑦⑥⑦④ |--①-|
口口②口 |②-③-|
⑦口⑦⑤ |④-⑤-|
③口口① |⑥-⑦-|
31
口⑤口③ |--①-|
口口口① |②---|
⑥④口口 |③-④-|
口口②口 |⑤-⑥-|
32
⑧口⑧口 |①-②-|
①③⑤口 |③-④-|
⑧⑦⑧口 |⑤-⑥-|
口②④⑥ |⑦-⑧-|
33
⑥口⑥① |--①-|
口口③口 |②-③-|
⑥⑤⑥② |④-⑤-|
口口④口 |--⑥-|
34
口口口① |--①-|
口⑥③⑥ |②-③-|
口⑤口② |④-⑤-|
口⑥④⑥ |--⑥-|
35
①②口口 |--①-|
口⑥③口 |②-③-|
⑥口⑥④ |④-⑤-|
口⑥⑤口 |--⑥-|
36
口③④口 |--①-|
②口口⑤ |②-③-|
口①⑥口 |④-⑤-|
口口口口 |⑥---|
37
①口口① |①---|
口①①口 |----|
①④③① |--②-|
口口口② |③-④-|
38
口口口口 |①---|
①口口口 |②-③-|
④口口② |--④-|
⑤口③口 |--⑤-|
39
口口口口 |----|
口②③口 |----|
①口口口 |--①-|
口口口口 |②-③-|
40
口①口口 |①-②-|
②口口口 |③-④-|
⑦③④⑦ |⑤-⑥-|
口⑥口⑤ |--⑦-|
41
口①①口 |----|
口口口口 |----|
口②②口 |----|
口口口口 |①-②-|
42
口口①口 |----|
口口口① |----|
①口口口 |----|
口口口口 |①---|
43
口②口口 |①---|
②③①口 |--②-|
口口口② |----|
①口口③ |③---|
44
口口口口 |----|
①口口① |----|
口口口口 |----|
口①①口 |--①-|
45
①②③口 |----|
口口口口 |①---|
①②③口 |②---|
口口口口 |③---|
46
④⑤⑥口 |①-②-|
口③②① |③-④-|
④⑤⑥口 |--⑤-|
口口口口 |--⑥-|
47
口口口口 |----|
口口②① |①-②-|
口口⑥⑤ |③-④-|
③④口口 |⑤-⑥-|
48
①口口口 |①-②-|
口②③口 |③-④-|
①口口口
口口口④

⑧口口⑦
口口口口
⑧口口⑦ |⑤-⑥-|
口⑥⑤口 |⑦-⑧-|
49
口①口口 |----|
口①口② |----|
①口②口 |----|
口口②口 |①-②-|
50
口口口口 |----|
①口口② |----|
口口口口 |①---|
①口口② |--②-|
51
④④口② |----|
口③口口 |①-②-|
口①②口 |--③-|
③口口口 |--④-|
52
口口口口 |--①-|
口③口口 |--②-|
口②②口 |----|
③口①① |③---|
53
④口①口 |①---|
③口口口 |②---|
②口口① |③---|
口口口口 |④---|
54
口①口③ |①---|
口②口④ |②---|
口③⑤口 |③-④-|
口⑤⑥口 |⑤-⑥-|
55
④口口⑤ |①---|
③口⑤口 |②---|
②口口口 |③---|
①口口口 |④-⑤-|
56
口①口口 |①---|
口②口口 |②---|
口③④④ |③---|
口④③③ |④---|
57
⑤口③① |①---|
④口①③ |②-③-|
②口⑤⑤ |④---|
①口口口 |⑤---|
58
口①③④ |①---|
口②④③ |②---|
口③口口 |③---|
口④口口 |④---|
59
⑧④⑨⑬ |①②③④|
②⑫⑮⑦ |⑤⑥⑦⑧|
⑥⑭①⑪ |⑨⑩⑪⑫|
⑩口⑤③ |⑬⑭⑮-|
60
口②口口 |----|
口②口口 |----|
口口①口 |①---|
口口①口 |②---|
61
④口口① |①---|
口口③② |②-③-|
口口③② |----|
④口口① |④---|
62
口口④口 |①-②-|
①②口口 |----|
①②口口 |③-④-|
口⑤③口 |⑤---|
63
①口口口 |①---|
②③⑤④ |②-③-|
②③⑤④ |--④-|
①口口口 |⑤---|
64
口口口① |①---|
③口口② |----|
③口口② |②---|
口口口① |③---|
65
④口口① |①---|
口③②口 |②-③-|
口③②口 |----|
④口口① |④---|
66
口④③口 |①-②-|
①口口② |----|
①口口② |③---|
口④③口 |④---|
67
①口口口 |①---|
②③⑤④ |②-③-|
②③⑤④ |--④-|
①口口口 |⑤---|
68
口口③① |①---|
口口③口 |----|
口②口口 |②---|
口②口① |③---|
69
①口口④ |①---|
②③口口 |②-③-|
②③口口 |----|
①口口④ |④---|
70
⑥口口口 |①-②-|
口④②① |----|
⑤口②① |③-④-|
口③口口 |⑤-⑥-|
71
口①⑤③ |①---|
①口⑤③ |②-③-|
口①②④ |--④-|
①口②④ |⑤---|
72
①①口口 |①---|
②③口④ |----|
②③口④ |②-③-|
①①口口 |--④-|
73
②③④口 |①---|
口口①⑤ |②---|
口口①⑤ |③---|
②③④口 |④-⑤-|
74
⑤③口口 |----|
④②①口 |①---|
④②①口 |②-③-|
⑤③口口 |④-⑤-|
75
口口口口 |----|
①口①口 |----|
口口口口 |----|
①口①口 |-①--|
76
口口口口 |-①--|
口①口口 |-②--|
①②①口 |----|
口①口口 |----|

不確定度: 0

最終更新:2016年04月11日 22:22