MATATABISTEP
パスピエ

BASIC

Level: 2
BPM: 135
Notes: 218

1
口口口口 |----|
口口口口 |----|
口口口口 |----|
口口口口 |----|
2
口口口口 |----|
口口口口 |----|
口口口口 |----|
口口口口 |----|
3
口口口口 |----|
口口口口 |----|
口口口口 |----|
口口口口 |----|
4
口口口口 |①---|
口口①口 |----|
口口口口 |----|
口口口口 |----|
5
口口口口 |----|
口口口口 |----|
口口口口 |----|
口口口口 |----|
6
口口口口 |①---|
口①口口 |----|
口口口口 |----|
口口口口 |----|
7
口口口口 |----|
口口口口 |----|
口①①口 |----|
口口口口 |①---|
8
口口口口 |①---|
口口①口 |----|
口口口口 |----|
口口口口 |----|
9
口口口口 |①---|
口①口口 |----|
口口口口 |----|
口口口口 |----|
10
口口口口 |①---|
口口口口 |----|
口口①口 |----|
口口口口 |----|
11
口口口口 |①---|
口口口口 |----|
口①口口 |----|
口口口口 |----|
12
口口口口 |①---|
口①①口 |----|
口口口口 |----|
口口口口 |----|
13
口口口口 |①---|
①口口① |----|
口口口口 |----|
口口口口 |----|
14
口口口口 |①---|
口口口口 |----|
口①①口 |----|
口口口口 |----|
15
口口口口 |①---|
口口口口 |----|
①口口① |----|
口口口口 |----|
16
口口口口 |①---|
口口口① |----|
口口口① |----|
口口口口 |----|
17
口口口口 |①---|
①口口口 |----|
①口口口 |----|
口口口口 |----|
18
口口口口 |①---|
口口口口 |----|
口①①口 |----|
口口口口 |----|
19
口口口口 |①---|
①②③④ |②---|
口口口口 |③---|
口口口口 |④---|
20
口口口口 |----|
口①口口 |①---|
口②口口 |②---|
口③口口 |③---|
21
口口口口 |①---|
④③②① |②---|
口口口口 |③---|
口口口口 |④---|
22
口口口口 |----|
口口①口 |①---|
口口②口 |②---|
口口③口 |③---|
23
口口口口 |①---|
①②③④ |②---|
口口口口 |③---|
口口口口 |④---|
24
口口口口 |----|
③口口口 |①---|
②口口口 |②---|
①口口口 |③---|
25
①②③④ |①---|
口口口口 |②---|
口口口口 |③---|
口口口口 |④---|
26
口口口口 |①---|
口口口① |②---|
口口口② |③---|
口口④③ |④---|
27
③⑤④② |①---|
③口口② |②---|
①①①① |③---|
口口口口 |④-⑤-|
28
口口口口 |①---|
口①①② |②---|
口①①③ |③---|
口口口④ |④---|
29
口口④口 |①---|
口口③口 |②---|
口口②口 |③---|
口口①口 |④---|
30
口①口口 |①---|
口②口口 |②---|
口③口口 |③---|
口④口口 |④---|
31
②④⑤③ |①---|
②口口③ |②---|
口口口口 |③---|
①口口口 |④-⑤-|
32
口口口口 |①---|
②①①口 |②---|
③①①口 |③---|
④口口口 |④---|
33
口④口口 |①---|
口③口口 |②---|
口②口口 |③---|
口①口口 |④---|
34
口口①口 |①---|
口口②口 |②---|
口口③口 |③---|
口口④口 |④---|
35
③⑤④② |①---|
③口口② |②---|
口口口口 |③---|
口口口① |④-⑤-|
36
口口口口 |①---|
口①①② |②---|
口①①③ |③---|
口口口④ |④---|
37
口口④口 |①---|
口口③口 |②---|
口口②口 |③---|
口口①口 |④---|
38
口①口口 |①---|
口②口口 |②---|
口③口口 |③---|
口④口口 |④---|
39
②④⑤③ |①---|
②口口③ |②---|
口口口口 |③---|
①口口口 |④-⑤-|
40
口口口口 |①---|
②①①口 |②---|
③①①口 |③---|
④口口口 |④---|
41
口④口口 |①---|
口③口口 |②---|
口②口口 |③---|
口①口口 |④---|
42
口口①口 |①---|
口口②口 |②---|
口口③口 |③---|
口口④口 |④---|
43
口口口口 |①---|
②口口② |----|
①口口① |②---|
口口口口 |----|
44
③⑤④② |①---|
③口口② |②---|
①①①① |③---|
口口口口 |④-⑤-|
45
口口口口 |①---|
口①①② |②---|
口①①③ |③---|
口口口④ |④---|
46
口口口口 |①---|
口口口口 |②---|
④口口口 |③---|
③②①口 |④---|
47
②③④口 |①---|
①口口口 |②---|
口口口口 |③---|
口口口口 |④---|
48
口口口① |①---|
口口口② |②---|
口口口③ |③---|
口口口④ |④---|
49
口口口口 |①---|
②①①口 |②---|
③口口口 |③---|
④口口口 |④---|
50
口口口口 |①---|
口口口口 |②---|
口口口④ |③---|
口①②③ |④---|
51
口④③② |①---|
口口口① |②---|
口口口口 |③---|
口口口口 |④---|
52
①口口口 |①---|
②口口口 |②---|
③口口口 |③---|
④口口口 |④---|
53
口口口口 |①---|
口口口口 |----|
口①①口 |----|
口口口口 |----|
54
口口口口 |①---|
口口口口 |----|
①口口① |----|
口口口口 |----|
55
口口口口 |①---|
口①①口 |----|
口口口口 |----|
口口口口 |----|
56
口口口口 |①---|
①口口① |----|
口口口口 |----|
口口口口 |----|
57
口口口口 |①---|
口口口① |②---|
口口口② |③---|
口口④③ |④---|
58
口口口口 |①---|
④口口口 |②---|
③口口口 |③---|
②①口口 |④---|
59
①②③④ |①---|
口口口口 |②---|
口口口口 |③---|
口口口口 |④---|
60
口口口口 |①---|
口④③① |②---|
口⑥⑤② |③-④-|
口口口口 |⑤-⑥-|

不確定度: 0

最終更新:2016年04月11日 22:21