MATATABISTEP
パスピエ

ADVANCED

Level: 5
BPM: 135
Notes: 365

1
口口口口 |----|
口口口口 |----|
口口口口 |----|
口口口口 |----|
2
口口口口 |①---|
口①①口 |----|
口口口口 |----|
口口口口 |----|
3
口口口口 |①---|
①口口① |----|
口口口口 |----|
口口口口 |----|
4
口口口① |①---|
口口口② |②---|
口口口③ |③---|
口口口④ |④---|
5
口口口口 |①---|
口口口口 |②---|
④口口口 |③---|
③②①口 |④---|
6
②③④口 |①---|
①口口口 |②---|
口口口口 |③---|
口口口口 |④---|
7
口口口① |①---|
口③③② |②---|
口口口口 |----|
口口口口 |③---|
8
口口口③ |①---|
④口口口 |②---|
口②①⑤ |③-④-|
⑥口口口 |⑤-⑥-|
9
口口口口 |①---|
③口口③ |②---|
④②①④ |③---|
口口口口 |④---|
10
口口口③ |①---|
④口口口 |②---|
口②①⑤ |③-④-|
⑥口口口 |⑤-⑥-|
11
口口口口 |①---|
③口口③ |②---|
④②①④ |③---|
口口口口 |④---|
12
口口口② |----|
③①①口 |①---|
口口口④ |②-③-|
口口口口 |④---|
13
口口口口 |①-②-|
口口口口 |③-④-|
①③⑤口 |⑤-⑥-|
②④⑥⑦ |⑦---|
14
②口口① |--①-|
④口口③ |②-③-|
⑥口口⑤ |④-⑤-|
口口口⑦ |⑥-⑦-|
15
口口④② |①---|
口⑥⑤③ |②-③-|
口①①口 |④-⑤-|
口口口口 |⑥---|
16
⑤口口口 |----|
口口口④ |①---|
③①①口 |②-③-|
口口口② |④-⑤-|
17
口口口口 |--①-|
①口口口 |--②-|
②口口④ |--③-|
③口口口 |--④-|
18
口口口口 |①---|
②①①④ |②-③-|
口③③⑤ |--④-|
口口口口 |--⑤-|
19
口口口口 |----|
口口口口 |--①-|
口口①口 |②---|
口口②口 |----|
20
口口口② |----|
③①①口 |①---|
口口口④ |②-③-|
口口口口 |④---|
21
口口口口 |①-②-|
口口口口 |③-④-|
①③⑤口 |⑤-⑥-|
②④⑥⑦ |⑦---|
22
②口口① |--①-|
④口口③ |②-③-|
⑥口口⑤ |④-⑤-|
口口口⑦ |⑥-⑦-|
23
口口④② |①---|
口⑥⑤③ |②-③-|
口①①口 |④-⑤-|
口口口口 |⑥---|
24
口口口口 |----|
⑥口口③ |①-②-|
⑤口口② |③-④-|
④口口① |⑤-⑥-|
25
口口口口 |--①-|
口①②③ |--②-|
口口口④ |--③-|
口口口口 |--④-|
26
口口口口 |①---|
②①①④ |②-③-|
口③③⑤ |--④-|
口口口口 |--⑤-|
27
口①①口 |----|
口②②口 |①---|
④口口③ |②---|
口口口口 |③-④-|
28
⑤⑤口口 |①---|
④④口口 |--②-|
口①①③ |③--④|
口①①② |-⑤--|
29
口口⑤⑤ |①---|
口口④④ |--②-|
③①①口 |③--④|
②口口口 |-⑤--|
30
⑤⑤口口 |①---|
④④口口 |--②-|
口①①③ |③--④|
口口口② |-⑤--|
31
口口口口 |①---|
口⑤④口 |②---|
③①①③ |③---|
②口口② |④-⑤-|
32
口口⑤⑤ |①---|
口口④④ |--②-|
③①①口 |③--④|
②①①口 |-⑤--|
33
⑤⑤口口 |①---|
④④口口 |--②-|
口①①③ |③--④|
口口口② |-⑤--|
34
口口⑤⑤ |①---|
口口④④ |--②-|
③①①口 |③--④|
②口口口 |-⑤--|
35
口口口口 |①---|
口⑤④口 |②---|
③①①③ |③---|
②口口② |④-⑤-|
36
⑤⑤口口 |①---|
④④口口 |--②-|
口①①③ |③--④|
口①①② |-⑤--|
37
口口⑤⑤ |①---|
口口④④ |--②-|
③①①口 |③--④|
②口口口 |-⑤--|
38
⑤⑤口口 |①---|
④④口口 |--②-|
口①①③ |③--④|
口口口② |-⑤--|
39
口口口口 |①---|
口④⑤口 |②---|
③①①③ |③---|
②口口② |④-⑤-|
40
口口⑤⑤ |①---|
口口④④ |--②-|
③①①口 |③--④|
②口口口 |-⑤--|
41
⑤⑤口口 |①---|
④④口口 |--②-|
口①①③ |③--④|
口口口② |-⑤--|
42
口口⑤⑤ |①---|
口口④④ |--②-|
③①①口 |③--④|
②口口口 |-⑤--|
43
口口口口 |①---|
②口口② |----|
口①①口 |②---|
口口口口 |----|
44
①②②① |①---|
口③③口 |②---|
⑤口口④ |③---|
⑤口口④ |④-⑤-|
45
口口口③ |①---|
④②口口 |②---|
口①①⑤ |③-④-|
⑥①①口 |⑤-⑥-|
46
口口口③ |①---|
口口④口 |②---|
口②①⑤ |③-④-|
口口⑥口 |⑤-⑥-|
47
③口口口 |①---|
口④口口 |②---|
⑤②①口 |③-④-|
口⑥口口 |⑤-⑥-|
48
口④③口 |①---|
⑥口口⑤ |②---|
口②①口 |③-④-|
口口口口 |⑤-⑥-|
49
口口口口 |①---|
口口口口 |②---|
④②①③ |③-④-|
口⑥⑤口 |⑤-⑥-|
50
口口口③ |①---|
口口口④ |②---|
口②①⑤ |③-④-|
口口口⑥ |⑤-⑥-|
51
③口口口 |①---|
④口口口 |②---|
⑤②①口 |③-④-|
⑥口口口 |⑤-⑥-|
52
④口口③ |①---|
⑥口口⑤ |②---|
口②①口 |③-④-|
口口口口 |⑤-⑥-|
53
口口口口 |①---|
口口口口 |----|
口①①口 |----|
口口口口 |----|
54
口口口口 |①---|
口①①口 |----|
口口口口 |----|
口口口口 |----|
55
口口口口 |①---|
口口口口 |----|
①口口① |----|
口口口口 |----|
56
口口口口 |①---|
①口口① |----|
口口口口 |----|
口口口口 |----|
57
口口口③ |①---|
④②①口 |②---|
口口口⑤ |③-④-|
⑥口口口 |⑤-⑥-|
58
口口③口 |①---|
口②①④ |②---|
口口⑤口 |③-④-|
口口口⑥ |⑤-⑥-|
59
口③口口 |①---|
④②①口 |②---|
口⑤口口 |③-④-|
⑥口口口 |⑤-⑥-|
60
口口口口 |①---|
口②①口 |②---|
口口口口
口口口口

④④③③
⑥⑥⑤⑤
口口口口 |③-④-|
口口口口 |⑤-⑥-|

不確定度: 0

最終更新:2016年04月11日 22:21