MATATABISTEP
パスピエ

EXTREME

Level: 8
BPM: 135
Notes: 521

1
口口口口 |----|
口口口口 |----|
口口口口 |----|
口口口口 |----|
2
口口⑫② |①-②③|
⑤⑦⑩④ |-④⑤⑥|
③⑨⑧⑥ |⑦-⑧⑨|
①⑪口口 |-⑩⑪⑫|
3
口口⑫② |①-②③|
⑤⑦⑩④ |-④⑤⑥|
③⑨⑧⑥ |⑦-⑧⑨|
①⑪口口 |-⑩⑪⑫|
4
口口⑫② |①-②③|
⑤⑦⑩④ |-④⑤⑥|
③⑨⑧⑥ |⑦-⑧⑨|
①⑪口口 |-⑩⑪⑫|
5
口口⑫② |①-②③|
⑤⑦⑩④ |-④⑤⑥|
③⑨⑧⑥ |⑦-⑧⑨|
①⑪口口 |-⑩⑪⑫|
6
口口⑫② |①-②③|
⑤⑦⑩④ |-④⑤⑥|
③⑨⑧⑥ |⑦-⑧⑨|
①⑪口口 |-⑩⑪⑫|
7
口口口② |①-②③|
⑤⑦⑦④ |-④⑤⑥|
③⑦⑦⑥ |----|
①口口口 |⑦---|
8
口⑦⑨② |①-②③|
⑤口口④ |-④⑤⑥|
③口口⑥ |⑦-⑧-|
①⑩⑧口 |⑨-⑩-|
9
口⑧⑧② |①-②③|
⑤口口④ |-④⑤⑥|
③口口⑥ |⑦---|
①⑦⑦口 |⑧---|
10
口⑦⑨② |①-②③|
⑤口口④ |-④⑤⑥|
③口口⑥ |⑦-⑧-|
①⑩⑧口 |⑨-⑩-|
11
口⑧⑧② |①-②③|
⑤口口④ |-④⑤⑥|
③口口⑥ |⑦---|
①⑦⑦口 |⑧---|
12
口口口口 |----|
口①①② |①---|
口口口③ |②-③-|
口口口④ |④---|
13
口口④口 |①-②-|
③⑤口口 |③-④-|
②口⑥口 |⑤-⑥-|
①⑦口口 |⑦---|
14
⑦口口口 |--①-|
⑥口口① |②-③-|
⑤口口② |④-⑤-|
④口口③ |⑥-⑦-|
15
口①①② |①---|
③口口口 |②-③-|
口⑥⑥④ |④-⑤-|
⑤口口口 |⑥---|
16
①口②② |----|
①⑤口② |①---|
①④②口 |②-③-|
口③②② |④-⑤-|
17
口口口口 |--①-|
口口口① |--②-|
口口口② |--③-|
④口口③ |--④-|
18
④③③④ |①---|
⑤①①⑤ |②-③-|
口口口② |--④-|
口口口口 |--⑤-|
19
口口口口 |----|
口②①口 |--①-|
口①②口 |②---|
口口口口 |----|
20
口口口口 |----|
②①①口 |①---|
③口口口 |②-③-|
④口口口 |④---|
21
④口口口 |①-②-|
⑤口口③ |③-④-|
⑥口口② |⑤-⑥-|
⑦口口① |⑦---|
22
口口口⑦ |--①-|
①口口⑥ |②-③-|
②口口⑤ |④-⑤-|
③口口④ |⑥-⑦-|
23
②①①口 |①---|
口口口③ |②-③-|
④⑥⑥口 |④-⑤-|
口口口⑤ |⑥---|
24
口口口口 |----|
⑥口口① |①-②-|
⑤口口② |③-④-|
④口口③ |⑤-⑥-|
25
口口口口 |--①-|
③④②① |--②-|
②①③④ |--③-|
③④②① |--④-|
26
口③③口 |①---|
口口口② |②-③-|
①①口口
口口口口

④口口④
口⑤⑤口
口⑤⑤口 |--④-|
口口口口 |--⑤-|
27
②④③① |----|
口口口口 |①---|
口口口口 |②---|
①③④② |③-④-|
28
口口口口 |①---|
①口口① |--②-|
①口口①
②口口口

口口口口
口口⑤④
⑥⑥口口 |③-④⑤|
口③口口 |-⑥--|
29
口口口口 |①---|
①①口② |--②③|
口口口③
口口口口

口口口口
口⑦⑦口
⑤⑥口口 |④-⑤⑥|
口口口④ |-⑦--|
30
口①①口 |①---|
口口口口 |--②-|
②口口口
口口口口

口⑥⑥口
③口⑤④
口口口口 |③-④⑤|
口口口口 |-⑥--|
31
③⑤④② |①---|
口口口口 |②---|
口①①口 |③---|
②④⑤③ |④-⑤-|
32
口口口口 |①---|
①口口① |--②-|
①口口①
②口口口

口口口口
口口⑤④
⑥⑥口口 |③-④⑤|
口③口口 |-⑥--|
33
口口口口 |①---|
①①口口 |--②-|
口口口口
②口口口

口口口口
口⑥⑥口
③口⑤④ |③-④⑤|
口口口口 |-⑥--|
34
口①①口 |①---|
口口口口 |--②-|
②口口口
口口口口

口⑥⑥口
③口⑤④
口口口口 |③-④⑤|
口口口口 |-⑥--|
35
②⑤④③ |①---|
口口口口 |②---|
口①①口 |③---|
③④⑤② |④-⑤-|
36
口口口口 |①---|
①口口① |--②-|
①口口①
②口口口

口口口口
口口⑤④
⑥⑥口口 |③-④⑤|
口③口口 |-⑥--|
37
口口口口 |①---|
①①口② |--②③|
口口口③
口口口口

口口口口
口⑦⑦口
⑤⑥口口 |④-⑤⑥|
口口口④ |-⑦--|
38
口①①口 |①---|
口口口口 |--②-|
②口口口
口口口口

口⑥⑥口
③口⑤④
口口口口 |③-④⑤|
口口口口 |-⑥--|
39
③⑤④② |①---|
口口口口 |②---|
口①①口 |③---|
②④⑤③ |④-⑤-|
40
口口口口 |①---|
①口口① |--②-|
①口口①
②口口口

口口口口
口口⑤④
⑥⑥口口 |③-④⑤|
口③口口 |-⑥--|
41
口口口口 |①---|
①①口口 |--②-|
口口口口
②口口口

口口口口
口⑥⑥口
③口⑤④ |③-④⑤|
口口口口 |-⑥--|
42
口①①口 |①---|
口口口口 |--②-|
②口口口
口口口口

口⑥⑥口
③口⑤④
口口口口 |③-④⑤|
口口口口 |-⑥--|
43
①口口① |①---|
②口口② |----|
口口口口 |②---|
口口口口 |----|
44
③⑤④② |①---|
口口口口 |②---|
①口口① |③---|
②④⑤③ |④-⑤-|
45
口⑦⑨② |①-②③|
⑤口口④ |-④⑤⑥|
③口口⑥ |⑦-⑧-|
①⑩⑧口 |⑨-⑩-|
46
口⑦⑨② |①-②③|
⑤口口④ |-④⑤⑥|
③口口⑥ |⑦-⑧-|
①⑩⑧口 |⑨-⑩-|
47
口⑦⑨② |①-②③|
⑤口口④ |-④⑤⑥|
③口口⑥ |⑦-⑧-|
①⑩⑧口 |⑨-⑩-|
48
口⑦⑨② |①-②③|
⑤口口④ |-④⑤⑥|
③口口⑥ |⑦-⑧-|
①⑩⑧口 |⑨-⑩-|
49
口⑦⑨② |①-②③|
⑤口口④ |-④⑤⑥|
③口口⑥ |⑦-⑧-|
①⑩⑧口 |⑨-⑩-|
50
口⑦⑨② |①-②③|
⑤口口④ |-④⑤⑥|
③口口⑥ |⑦-⑧-|
①⑩⑧口 |⑨-⑩-|
51
口⑦⑨② |①-②③|
⑤口口④ |-④⑤⑥|
③口口⑥ |⑦-⑧-|
①⑩⑧口 |⑨-⑩-|
52
口⑦⑨② |①-②③|
⑤口口④ |-④⑤⑥|
③口口⑥ |⑦-⑧-|
①⑩⑧口 |⑨-⑩-|
53
①口口① |①---|
②口口② |----|
口口口口 |②---|
口口口口 |----|
54
口口口口 |①---|
口②②口 |----|
①口口① |②---|
口口口口 |----|
55
①口口① |①---|
②口口② |----|
口口口口 |②---|
口口口口 |----|
56
口口口口 |①---|
口口口口 |----|
①②②① |②---|
口口口口 |----|
57
口⑦⑨② |①-②③|
⑤口口④ |-④⑤⑥|
③口口⑥ |⑦-⑧-|
①⑩⑧口 |⑨-⑩-|
58
口⑦⑨② |①-②③|
⑤口口④ |-④⑤⑥|
③口口⑥ |⑦-⑧-|
①⑩⑧口 |⑨-⑩-|
59
口⑦⑨② |①-②③|
⑤口口④ |-④⑤⑥|
③口口⑥ |⑦-⑧-|
①⑩⑧口 |⑨-⑩-|
60
口口口② |①-②③|
⑤口口④ |-④⑤⑥|
③口口⑥
①口口口

⑫⑫⑫⑫
口⑪口口
口⑨⑩口 |⑦⑧⑨⑩|
口⑦⑧口 |⑪-⑫-|

不確定度: 0

最終更新:2016年04月11日 22:21