レット・イット・ゴー~ありのままで~ [2]


ADVANCED

Level: 3
BPM: 137
Notes: 203

1
口口口口 |----|
口口口口 |----|
口口口口 |----|
口口口口 |----|
2
口口口口 |①---|
①口口口 |----|
口口口口 |----|
口口口口 |----|
3
口口口口 |①---|
口①口口 |----|
口口口口 |----|
口口口口 |----|
4
口口口口 |①---|
口口①口 |----|
口口口口 |----|
口口口口 |----|
5
口口口口 |①---|
|----|
口口口口
口口口口

口口口口
口口口
口口口口 |②---|
口口口口 |----|
6
口口口口 |①---|
口口口口 |----|
①口口口 |----|
口口口口 |----|
7
口口口口 |①---|
口口口口 |----|
口①口口 |----|
口口口口 |----|
8
口口口口 |①---|
口口口口 |----|
口口①口 |----|
口口口口 |----|
9
口口口口 |①---|
口口口口 |----|

口口口口

口③口口
口口口口
口口口 |②---|
口口口口 |--③-|
10
口口②口 |①---|
口①③口 |②-③-|
⑤口④口 |④---|
口口口口 |⑤---|
11
口口口③ |①-②-|
口①②口 |--③-|
口口口口 |----|
④⑤口口 |④-⑤-|
12
口口口口 |①-②-|
口口口口 |----|
口口口
口口①

口口口口
④⑤⑥口
口口口口 |③-④-|
口口口 |⑤-⑥-|
13
口口口口 |----|
口口口口 |----|
①口口口 |----|
口口口口 |--①-|
14
口口 |--①-|
②① |②-③-|
口口口口
口口口口

口口口口
口口
口口⑤⑥ |--④-|
口口口口 |⑤-⑥-|
15
口口口口 |--①-|
③④口口 |②---|
②①口口 |----|
口口口口 |③-④-|
16
口口口口 |①-②-|
口口①② |----|
口⑤④③ |--③-|
口口口口 |④-⑤-|
17
口口口口 |----|
口口口口 |----|
口口口口 |----|
口口口口 |----|
18
口口口① |----|
|①-②-|
口口口口
口口口口

口④口口
口口口
口口口口 |--③-|
口口口口 |--④-|
19
口口口口 |--①-|
口①口④ |--②-|
口②口口 |--③-|
口③口口 |--④-|
20
口口口口 |--①-|
③②①口 |--②-|
④口口口 |--③-|
口口口口 |--④-|
21
口口口口 |----|
口口口口 |----|
口口口口 |----|
口口口口 |----|
22
口⑤⑤口 |----|
口口口口 |①-②-|
口③④口 |③-④-|
口①②口 |--⑤-|
23
口口 |----|
口③④口 |①-②-|
口①②口 |③-④-|
口口口口 |⑤---|
24
|①-②-|
口口口口 |----|
口口口口 |----|
口口口口 |----|
25
口口口 |----|
口口口口 |----|
口口口口 |----|
口口口口 |--①-|
26
口口④口 |----|
①②口口 |①-②-|
口口③口 |--③-|
口口口口 |--④-|
27
|--①-|
口口口口
口口口口
口口口口

口口口
|--②-|
口口口口
口口口口

口口口口
口口口
|--③-|
口口口口

口口口口
口口口口
口口口
|--④-|
28
口口⑤口 |--①-|
口④口口 |②-③-|
口口③口 |④-⑤-|
口②⑥ |--⑥-|
29
口口口口 |①-②-|

口①口口
口口口口

口③口口
口④口 |--③-|
口⑤口口 |--④-|
口口口口 |--⑤-|
30
口口口口 |----|
①②③④ |①-②-|
口口口口 |③-④-|
口⑤⑤口 |--⑤-|
31
口口口口 |----|
口口口口 |①-②-|
口②②口
①口口①

口口
③③
口口 |--③-|
口口 |--④-|
32
口口口口 |----|
口口口口 |----|
口口口口 |----|
口口口口 |----|
33
口口 |----|
口②②口 |----|
口③③口 |①---|
口口口口 |②-③-|
34
口口口口 |--①-|
口口口口
口口口口
①口口①

口口
口口 |--②-|
口口 |----|
口口 |----|
35
口口 |----|
口②口口 |----|
口口③口 |①-②-|
|③-④-|
36
口 |----|
口③口口 |----|
口口②口 |①-②-|
口口 |③-④-|
37
口口口 |----|
②③④口 |----|
口口口口 |①-②-|
口口口口 |③-④-|
38
口口口口 |--①-|
口口口口 |②-③-|
口③②①
口口口口

口口口口
口口口口
⑤口口⑤ |--④-|
口④④口 |--⑤-|
39
|--①-|
①口口① |②---|
口口口口
口口口口

④口
口口⑤口
|③-④-|
口口口口 |⑤-⑥-|
40
口 |----|
口③口口 |----|
②口 |①-②-|
口口口口 |③-④-|
41
口口口 |----|
③口口③ |----|
口②②口 |①---|
口口口口 |②-③-|
42
|--①-|
口口口口 |--②-|
口口口口
口①①口

口口
口⑤⑥口
④口口④ |--③-|
口口口口 |④-⑤⑥|
43
口口 |--①-|
口口 |----|
口口
口口

口口口口
口口口口
口口口口 |----|
口口 |②---|
44
口口①① |①---|
口口②② |--②-|
|----|
口口口口 |③---|
45
口口口口 |----|
口口口口 |----|
口口口 |①---|
②口口口 |②---|
46
口口口口 |①---|
口口口口

口口口口

口口口口
|②-③-|
口口口
口口口口


口口口
口口口口 |--④-|
口口口口 |⑤---|
47
口②口 |----|
口口③口 |----|
口口口口 |①---|
口口口口 |②-③-|
48
口口口口 |①---|
口口口口

口口口口

口口
口口 |②-③-|

口口



口 |--④-|
|⑤---|
49
口②口口 |----|
口口口口 |----|
口口口口 |----|
口 |①-②-|
50
口口①口 |①---|
②④⑤③ |②-③-|
口⑥⑦口 |④-⑤-|
口口口口 |⑥-⑦-|
51
口口口口 |①-②-|
口口口口 |----|
①口口② |----|
口口口口 |----|

不確定度: 0

最終更新:2016年04月11日 22:19