KUNG-FU MAMA
seiya-murai feat. ALT

EXTREME

Level: 9
BPM: 150
Notes: 783

1
口口口口 |----|
口口口口 |----|
口口口口 |----|
口口口口 |----|
2
⑤⑥⑦③ |①②③-|
④口②口 |④⑤⑥⑦|
口口口①
口口口口

口口口口
口⑫口口
口⑩⑧⑪ |⑧-⑨⑩|
口口口⑨ |-⑪⑫-|
3
口②⑧口 |①②-③|
⑦⑨⑥① |④-⑤⑥|
⑤⑪④口 |-⑦⑧-|
③⑩口口 |-⑨⑩⑪|
4
⑤⑥⑦③ |①②③-|
④口口② |④⑤⑥⑦|
口口口①
口口口口

口口口口
口⑫口口
口⑩⑧⑪ |⑧-⑨⑩|
口口口⑨ |-⑪⑫-|
5
⑧⑨⑨⑧ |①②-③|
②⑦⑥① |④-⑤⑥|
⑤口④口 |-⑦⑧-|
③口口口 |⑨---|
6
⑬⑭⑮⑯ |①②③④|
⑫⑦⑥⑤ |⑤⑥⑦⑧|
⑪⑧③④ |⑨⑩⑪⑫|
⑩⑨②① |⑬⑭⑮⑯|
7
⑬⑭⑮⑯ |①②③④|
⑫⑦⑥⑤ |⑤⑥⑦⑧|
⑪⑧③④ |⑨⑩⑪⑫|
⑩⑨②① |⑬⑭⑮⑯|
8
⑬⑭⑮⑯ |①②③④|
⑫⑦⑥⑤ |⑤⑥⑦⑧|
⑪⑧③④ |⑨⑩⑪⑫|
⑩⑨②① |⑬⑭⑮⑯|
9
口口口口 |①②-③|
⑤⑥口口 |④-⑤⑥|
⑦③④⑦ |⑦---|
口口①② |----|
10
⑧⑧口口 |①-②-|
⑥⑥③④ |③④-⑤|
⑦⑦口口 |--⑥-|
①①⑤② |⑦-⑧-|
11
⑤⑤②③ |--①-|
口口口① |②③-④|
⑥⑥④口 |--⑤-|
⑦⑦口⑤ |⑥-⑦-|
12
⑤口②③ |--①-|
口口⑥口 |②③-④|
口⑥④① |--⑤-|
⑦口口⑤ |⑥-⑦-|
13
⑤口③口 |①-②-|
⑥④口⑤ |③-④-|
③口口② |--⑤-|
口①口口 |--⑥-|
14
⑧⑧口口 |①-②-|
⑥⑥③④ |③④-⑤|
⑦⑦口口 |--⑥-|
①①⑤② |⑦-⑧-|
15
⑤⑤②③ |--①-|
口口口① |②③-④|
⑥⑥④口 |--⑤-|
⑦⑦口⑤ |⑥-⑦-|
16
⑤口②③ |--①-|
口口口口 |②③-④|
口⑥④① |--⑤-|
⑦口口⑤ |⑥-⑦-|
17
⑤④③口 |①-②-|
②口口⑤ |③-④-|
③口④② |--⑤-|
口①口口 |----|
18
③口④口 |①-②-|
①口①口 |-③--|
口①口① |④--⑤|
②⑥②⑤ |--⑥-|
19
口②④④ |①--②|
①③①口 |--③-|
口②⑥⑤ |④--⑤|
口口⑤⑥ |--⑥-|
20
口②口③ |①-②-|
口口口口 |-③--|
①①口口
①①口口

口口⑥口
口口口口
口口⑥口 |④--⑤|
⑤口④口 |--⑥-|
21
④口口口 |①--②|
③①②① |--③-|
口口⑥⑤ |④--⑤|
口口口口 |--⑥-|
22
⑧⑧口口 |①-②-|
⑥⑥③④ |③④-⑤|
⑦⑦口口 |--⑥-|
①①⑤② |⑦-⑧-|
23
⑤⑤②③ |--①-|
口口口① |②③-④|
⑥⑥④口 |--⑤-|
⑦⑦口⑤ |⑥-⑦-|
24
⑤口②③ |--①-|
口口⑥口 |②③-④|
口⑥④① |--⑤-|
⑦口口⑤ |⑥-⑦-|
25
口口③口 |①-②-|
②④口口 |③-④-|
③口口②
口①口口

⑤口口口
⑥口口⑤
口口口口 |--⑤-|
口口口口 |--⑥-|
26
⑧⑧口① |①-②-|
⑥⑥③④ |③④-⑤|
⑦⑦口口 |--⑥-|
①①⑤② |⑦-⑧-|
27
⑤⑤②③ |--①-|
口口口① |②③-④|
⑥⑥④口 |--⑤-|
⑦⑦口⑤ |⑥-⑦-|
28
⑤口②③ |--①-|
口口⑥口 |②③-④|
口⑥④① |--⑤-|
⑦口口⑤ |⑥-⑦-|
29
⑤口③口 |①-②-|
②④口⑤ |③-④-|
③口口② |--⑤-|
口①口口 |----|
30
③口④口 |①-②-|
①口①口 |-③--|
口①⑤① |④-⑤-|
②⑥②口 |--⑥-|
31
口②④④ |①--②|
①③①口 |--③-|
口②⑥⑤ |④--⑤|
口口⑤⑥ |--⑥-|
32
口②口③ |①-②-|
口口口口 |-③--|
①①口口
①①口口

口口⑥口
口口口口
口口⑥口 |④--⑤|
⑤口④口 |--⑥-|
33
口口口口 |①--②|
③①②① |--③-|
口口口口
口口口口

口口口口
口口口⑥
口口口口 |④--⑤|
④口口⑤ |--⑥-|
34
口口口口 |①---|
口口①口 |--②-|
口①口口
②口口②

⑤口口⑤
口③④口
口④③口 |--③-|
口口口口 |④-⑤-|
35
口口②口 |----|
口④③② |----|
①③④口 |①-②-|
口①口口 |③-④-|
36
②①⑤口 |①---|
①③④⑤ |--②-|
⑤④③① |--③-|
口⑤①② |④-⑤-|
37
①②口口 |----|
②①口口 |----|
口口口口 |----|
口口口口 |①-②-|
38
口口①① |①---|
口口①① |--②-|
⑤⑤④② |③-④-|
⑤⑤③④ |--⑤-|
39
①②①② |----|
口③口③ |----|
④口④口 |①-②-|
口口口口 |③-④-|
40
口口口口 |①---|
口口口口 |----|
口口口口 |----|
口①口① |----|
41
①③③① |----|
口口口口 |----|
口口口口 |--①-|
口②②口 |②-③-|
42
口口口口 |①---|
口口①口 |--②-|
口①口口
②口口②

⑤口口⑤
口③④口
口④③口 |--③-|
口口口口 |④-⑤-|
43
口口②口 |----|
口④③② |----|
①③④口 |①-②-|
口①口口 |③-④-|
44
②①⑤口 |①---|
①③④⑤ |--②-|
⑤④③① |--③-|
口⑤①② |④-⑤-|
45
①②口口 |----|
②①口口 |----|
口口口口 |----|
口口口口 |①-②-|
46
口口①① |①---|
口口①① |--②-|
⑤⑥④② |③-④-|
⑤⑥③④ |⑤-⑥-|
47
②①①② |①---|
③③③③ |②---|
口口口口 |③---|
口口口口 |----|
48
口③③③ |----|
口口②② |①---|
口口口① |②---|
口口口口 |③---|
49
①口口口 |①---|
②②口口 |②---|
③③③口 |③---|
④④④④ |④---|
50
①③①口 |--①-|
④口⑥④ |②③-④|
⑧②⑦⑧ |--⑤-|
⑤口⑤口 |⑥⑦-⑧|
51
口①口① |--①-|
④③④口 |②③-④|
口口口口 |----|
⑤②⑤口 |⑤---|
52
⑤口⑤口 |--①②|
口③口② |③④-⑤|
④口④口
口①口①

口口口口
⑧口⑦⑧
口口口口 |--⑥-|
口口⑥口 |⑦-⑧-|
53
口⑦口口 |①---|
⑥②⑥口 |②--③|
④③④口 |④-⑤-|
⑤①⑤① |⑥-⑦-|
54
①口①口 |--①-|
④③⑥④ |②③-④|
⑧口⑦⑧ |--⑤-|
⑤②⑤口 |⑥⑦-⑧|
55
口①口① |--①-|
④③④④ |②③-④|
口口口⑤ |--⑤-|
⑥②⑥口 |⑥---|
56
⑤口⑤口 |--①②|
口③口② |③④-⑤|
④口口④
口①口①

口口口口
⑧口⑦⑧
口口⑥口 |--⑥-|
口口口口 |⑦-⑧-|
57
口口口口 |①---|
口②口口 |②--③|
口③口口
口①口①

口⑦口⑦
⑤口⑤口
④口④口 |④-⑤-|
口⑥口⑥ |⑥-⑦-|
58
①口①口 |--①-|
④③⑥④ |②③-④|
⑧②⑦⑧ |--⑤-|
⑤口⑤口 |⑥⑦-⑧|
59
口①口① |--①-|
④③④口 |②③-④|
口口口口 |----|
⑤②⑤口 |⑤---|
60
⑤口⑤口 |--①②|
口③口② |③④-⑤|
④口④口
口①口①

口口口口
⑧口⑦⑧
口口口口 |--⑥-|
口口⑥口 |⑦-⑧-|
61
口⑦口⑦ |①---|
⑥②⑥口 |②--③|
④③④口 |④-⑤-|
⑤①⑤① |⑥-⑦-|
62
①口①口 |--①-|
④③⑥④ |②③-④|
⑧口⑦⑧ |--⑤-|
⑤②⑤口 |⑥⑦-⑧|
63
口①口① |--①-|
④③④④ |②③-④|
口口口⑤ |--⑤-|
⑥②⑥口 |⑥---|
64
⑤口⑤口 |--①②|
口③口② |③④-⑤|
④口④口
口①口①

口口口口
⑧口⑦⑧
口口口口 |--⑥-|
口口⑥口 |⑦-⑧-|
65
口②口口 |①---|
口口口口 |②--③|
口③口口
口①口①

口口口口
⑤口⑤口
④口④口 |④-⑤-|
⑦⑥⑦⑥ |⑥-⑦-|
66
①①①① |①-②-|
④③⑦⑧ |③④-⑤|
⑥⑨⑤② |--⑥-|
口口口口 |⑦⑧-⑨|
67
口口口口 |--①-|
口口口口 |②③-④|
口口②③
①④口口

口口口口
口口口⑧
口⑥口口 |--⑤-|
⑦口⑨⑤ |⑥⑦⑧⑨|
68
口口口口 |-①②-|
④②口口 |③④-⑤|
⑤口③①
口口口口

口口口口
口⑨⑥⑧
口⑦口口 |⑥-⑦⑧|
口⑩⑩口 |-⑨⑩-|
69
①①①① |①---|
③口③口 |--②-|
②②②② |--③-|
④⑤⑤④ |④-⑤-|
70
①①①① |①-②-|
④③⑦⑧ |③④-⑤|
⑥⑨⑤② |--⑥-|
口口口口 |⑦⑧-⑨|
71
口口口口 |--①-|
口口口口 |②③-④|
口口②③
①④口口

口口口口
口口口口
口⑥口口 |--⑤-|
⑦口⑧⑤ |⑥⑦-⑧|
72
口口口口 |--①-|
③②⑥⑦ |②③-④|
⑤⑧④① |--⑤-|
口口口口 |⑥⑦-⑧|
73
口口口口 |--①-|
口口口口 |②③-④|
口口②③
①④口口

口口口口
口口口⑧
口⑥口口 |--⑤-|
⑦口⑨⑤ |⑥⑦⑧⑨|
74
⑤⑥⑦③ |①②③-|
④口②口 |④⑤⑥⑦|
口口口①
口口口口

口口口口
口⑪口口
口⑨口⑩ |--⑧⑨|
口口口⑧ |-⑩⑪-|
75
口②口口 |①②-③|
口口⑥① |④-⑤⑥|
⑤口④口
③口口口

口口⑧口
⑦⑩口⑪
口口⑫⑨ |-⑦⑧-|
口口口口 |⑨⑩⑪⑫|
76
④③⑥⑤ |-①②-|
口⑩②口 |③④-⑤|
①⑧口⑨ |⑥-⑦⑧|
口口口⑦ |-⑨⑩-|
77
口口口口 |①②-③|
②口⑥① |④-⑤⑥|
⑤口④口
③口口口

⑨口口⑧
口⑦口⑩
口⑪口口 |-⑦⑧-|
口口⑫口 |⑨⑩⑪⑫|


不确定度: 0

タグ:

+ タグ編集
  • タグ:

このサイトはreCAPTCHAによって保護されており、Googleの プライバシーポリシー利用規約 が適用されます。

最終更新:2012年11月10日 14:21