レット・イット・ゴー~ありのままで~


ADVANCED

Level: 3
BPM: 137
Notes: 181

1
口口口口 |----|
口口口口 |----|
口口口口 |----|
口口口口 |----|
2
口①①口 |①---|
口口口口 |----|
口口口口 |----|
口口口口 |----|
3
口口口口 |①---|
口①①口 |----|
口口口口 |----|
口口口口 |----|
4
口口口口 |①---|
口口口口 |----|
口①①口 |----|
口口口口 |----|
5
口口口口 |①---|
口口口口 |----|
口口口口 |----|
口①①口 |----|
6
口口口口 |①---|
①口口口 |----|
口口口口 |----|
口口口口 |----|
7
口口口口 |①---|
口①口口 |----|
口口口口 |----|
口口口口 |----|
8
口口口口 |①---|
口口①口 |----|
口口口口 |----|
口口口口 |----|
9
口口口口 |①---|
②口口① |----|
口口口口 |----|
口口口口 |--②-|
10
口⑤口口 |①---|
口①口口 |②-③-|
口④③② |④---|
口口口口 |⑤---|
11
口口口口 |①-②-|
口口口③ |--③-|
①②口口 |----|
④⑤口口 |④-⑤-|
12
口口口口 |①-②-|
口⑤④③ |----|
口口口口 |--③-|
口口①② |④-⑤-|
13
口口口口 |----|
①口口口 |----|
口口口口 |----|
口口口口 |--①-|
14
口口口口 |--①-|
口④⑤口 |②-③-|
口③②① |----|
口口口口 |④-⑤-|
15
①口口② |--①-|
口口④③ |②---|
口口口口 |----|
口口口口 |③-④-|
16
口口口口 |①-②-|
②①口口 |----|
③④⑤口 |--③-|
口口口口 |④-⑤-|
17
口口口口 |----|
口口口口 |----|
口口口口 |----|
口口口口 |----|
18
口口口口 |----|
①②口口 |①-②-|
④口口③ |--③-|
口口口口 |--④-|
19
②口口① |--①-|
④口口③ |--②-|
口口口口 |--③-|
口口口口 |--④-|
20
口口口口 |--①-|
口④③口 |--②-|
口口口口 |--③-|
②口口① |--④-|
21
口口口口 |----|
口口口口 |----|
口口口口 |----|
口口口口 |----|
22
⑤口口④ |----|
口口③口 |①-②-|
口②口口 |③-④-|
①口口口 |--⑤-|
23
④口口⑤ |----|
口③口口 |①-②-|
口口②口 |③-④-|
口口口① |⑤---|
24
口口口口 |--①-|
口口口口 |----|
口①①口 |----|
口口口口 |----|
25
口口口口 |----|
口口口口 |----|
口口口口 |----|
口口口口 |----|
26
口口口④ |----|
①②口口 |①-②-|
口口口口 |--③-|
口口口③ |--④-|
27
口④②口 |--①-|
口口口口 |--②-|
口口口口 |--③-|
口③①口 |--④-|
28
口口口口 |----|
口口口口 |①-②-|
①②③④ |③-④-|
⑤口口口 |--⑤-|
29
④④③口 |①-②-|
⑤⑤②③ |--③-|
口①口口 |--④-|
口口口口 |--⑤-|
30
④口⑤⑤ |----|
口③口口 |①-②-|
口口②口 |③-④-|
口口口① |--⑤-|
31
④口口④ |----|
口口口口 |①-②-|
③②②③ |--③-|
口①①口 |--④-|
32
口口口口 |----|
口口口口 |----|
口口口口 |----|
口口口口 |----|
33
口口口口 |----|
口①①口 |----|
口口口口 |----|
口②②口 |①-②-|
34
②口口② |--①-|
口口口口 |--②-|
口口口口 |----|
①口口① |----|
35
口口口口 |----|
口口口③ |----|
口①②口 |--①-|
口口口口 |②-③-|
36
口口口口 |----|
③口口口 |----|
口②①口 |--①-|
口口口口 |②-③-|
37
口①②③ |----|
口口口口 |----|
口口口口 |--①-|
口口口口 |②-③-|
38
口口口口 |--①-|
③②①口 |②-③-|
口④④口 |--④-|
口⑤⑤口 |--⑤-|
39
②口口② |--①-|
口口口⑤ |②---|
口③④口 |--③-|
①口口① |④-⑤-|
40
口口口口 |----|
③口口口 |----|
口②①口 |--①-|
口口口口 |②-③-|
41
②口口② |----|
口①①口 |----|
口口口口 |----|
口口口口 |①-②-|
42
口口⑤口 |--①-|
②④口② |--②-|
口③③口 |----|
口①①口 |③-④⑤|
43
口口口口 |--①-|
口口口口 |----|
①口口① |----|
口口口口 |----|
44
③口口③ |①---|
口②②口 |--②-|
口口口口 |----|
口①①口 |③---|
45
口口口口 |----|
口①①口 |----|
口口口口 |----|
口口口口 |①---|
46
③口口③ |①---|
口口口口 |--②-|
口①①口 |----|
口②②口 |③---|
47
口口口口 |----|
口①②口 |----|
口口口口 |----|
口口口口 |①-②-|
48
口口口口 |①---|
口口口① |--②-|
③②口口 |----|
③②口口 |③---|
49
口口口口 |----|
①口口口 |----|
口口口口 |----|
口口口口 |--①-|
50
口②③口 |①---|
口④⑤① |②-③-|
口⑥⑦口 |④-⑤-|
口口口口 |⑥-⑦-|
51
口口口口 |①-②-|
口口口口 |----|
口口口口 |----|
口①②口 |----|

不確定度: 0

最終更新:2016年04月11日 22:02