レット・イット・ゴー~ありのままで~


EXTREME

Level: 6
BPM: 137
Notes: 321

1
口口口口 |----|
口口口口 |----|
口口口口 |----|
口口口口 |----|
2
口口口⑤ |①-②-|
口口口口 |③-④-|
①②③④ |--⑤-|
口口口口 |----|
3
⑤口⑥口 |①-②-|
口口口口 |③-④-|
④③②① |--⑤-|
口口口口 |--⑥-|
4
口⑥口⑤ |①-②-|
口口口口 |③-④-|
①②③④ |--⑤-|
口口口口 |--⑥-|
5
口口口口 |①---|
口①口口 |----|
口口口口 |②---|
口②②口 |----|
6
口口口⑤ |①-②-|
口口口口 |③-④-|
①②③④ |--⑤-|
口口口口 |----|
7
⑤口⑥口 |①-②-|
口口口口 |③-④-|
④③②① |--⑤-|
口口口口 |--⑥-|
8
口⑥口⑤ |①-②-|
口口口口 |③-④-|
①②③④ |--⑤-|
口口口口 |--⑥-|
9
口③口口 |①---|
口①口口 |----|
口②②口 |②---|
口口口口 |--③-|
10
⑤口口⑤ |①---|
口①④口 |②-③-|
口口③口 |④---|
口口②口 |⑤---|
11
口①①口 |①-②-|
③口口③ |--③-|
口口口口
口②②口

口口口口
口口口口
④口口口 |----|
口⑤口口 |④-⑤-|
12
口口口口 |①-②-|
口口口口 |----|
口口①口
口口口②

口口口口
口口口口
口③④⑤ |--③-|
口③④⑤ |④-⑤-|
13
口口口口 |----|
①口口① |----|
口口口口 |----|
口口口口 |--①-|
14
⑤③③⑤ |--①-|
口②②口 |②-③-|
口①①口 |----|
④口口④ |④-⑤-|
15
口口口口 |--①-|
口②②口 |②---|
口①①口
口口口口

口口口口
口口口口
口④口口 |----|
口③口口 |③-④-|
16
口②口口 |①-②-|
口①口口 |----|
口口口口
口口口口

口口口口
③④⑤口
口口口口 |--③-|
口口口口 |④-⑤-|
17
②口口① |①---|
口口口口 |----|
②口口① |②---|
口口口口 |----|
18
口口口口 |①---|
口①①口 |②-③-|
②口口③
口口口口

口口口口
⑤④④口
⑤口口口 |--④-|
口口口口 |--⑤-|
19
口口口口 |--①-|
④口口③ |--②-|
④①②③ |--③-|
口①②口 |--④-|
20
口①②口 |--①-|
口①②③ |--②-|
口口④③ |--③-|
口口④口 |--④-|
21
⑦口口口 |--①-|
⑤口口⑥ |②-③-|
③口口④ |④-⑤-|
①口口② |⑥-⑦-|
22
口②口① |①---|
口③口⑥ |②-③-|
口④口⑥ |④-⑤-|
口⑤口口 |--⑥-|
23
①口口口 |----|
②口口口 |①-②-|
③口口口 |③-④-|
④⑤口口 |⑤---|
24
口口口② |--①-|
口口①口 |----|
口口①口 |②---|
口口口口 |----|
25
口口口口 |①---|
口口口① |----|
口口口② |②---|
口口口口 |----|
26
③口口口 |①---|
口口口口 |②-③-|
口口口口
②口①①

口口⑤⑤
口口口口
口口口口 |--④-|
口口④④ |--⑤-|
27
①口④④ |--①-|
口口口口 |--②-|
口口口口 |--③-|
②口③③ |--④-|
28
口口口口 |----|
口④④口 |①-②-|
①③③① |③-④-|
⑤②②⑤ |--⑤-|
29
⑤③③⑤ |①-②-|
②口口② |--③-|
①口口① |--④-|
口④④口 |--⑤-|
30
口①口口 |----|
口②口口 |①-②-|
口③口口 |③-④-|
口④口⑤ |--⑤-|
31
④①①④ |----|
口口口口 |①-②-|
口口口口 |--③-|
③②②③ |--④-|
32
口口口口 |----|
口口口口 |----|
口口口口 |----|
口口口口 |----|
33
口口口口 |----|
口①①口 |----|
口②②口 |----|
口口口口 |①-②-|
34
②②②② |--①-|
口口口口 |--②-|
口口口口 |----|
①①①① |----|
35
口口③③ |----|
口口②② |----|
口口①① |--①-|
口口口口 |②-③-|
36
③③口口 |----|
②②口口 |----|
①①口口 |--①-|
口口口口 |②-③-|
37
①②③口 |----|
口口口口 |----|
口口口口 |--①-|
口口口口 |②-③-|
38
④⑤口口 |--①-|
口③②① |②-③-|
④⑤口口 |--④-|
口口口口 |--⑤-|
39
口口①口 |--①-|
口口口② |②---|
口口①口
口口口口

口口口口
⑤⑤⑤⑤
④④④④ |--③-|
③③③③ |④-⑤-|
40
③③③③ |----|
②②②② |----|
①①①① |--①-|
口口口口 |②-③-|
41
口②②口 |----|
口口口口 |----|
口口口口 |----|
①口口① |①-②-|
42
②口口② |--①-|
口口口口 |--②-|
口口口口
口①①口

口口口口
③口口③
④口口④ |----|
口⑤⑤口 |③-④⑤|
43
①口口① |--①-|
口口口口 |----|
口口口口 |----|
口口口口 |----|
44
③③③③ |①---|
②②②② |--②-|
①①①① |----|
口口口口 |③---|
45
口口口口 |----|
口口口口 |----|
①①①① |----|
口口口口 |①---|
46
③③③③ |①---|
②②②② |--②-|
口口口口 |----|
①①①① |③---|
47
口口口口 |----|
口口口口 |----|
口①②口 |----|
口口口口 |①-②-|
48
③③③③ |①---|
口口口口 |--②-|
口口口① |----|
②②②② |③---|
49
口口口口 |----|
①口口口 |----|
①口口口 |----|
口口口口 |--①-|
50
②②③③ |①---|
口口口① |②-③-|
口口口①
口口口口

口口口口
④④⑤⑤
⑥⑥⑦⑦ |④-⑤-|
口口口口 |⑥-⑦-|
51
口口口口 |①-②-|
口口口口 |----|
口口口口 |----|
①①②② |----|

不確定度: 0

最終更新:2016年04月11日 22:01