サンキュー。
大原櫻子

BASIC

Level: 2
BPM: 128
Notes: 162

1
口口口口 |----|
口口口口 |----|
口口口口 |----|
口口口口 |----|
2
口口口口 |①---|
口①①口 |----|
口②②口 |②---|
口口口口 |----|
3
②口口② |--①-|
①口口① |--②-|
口口口口 |----|
口口口口 |----|
4
口口口口 |①---|
口①②口 |----|
口口口口 |②---|
口口口口 |----|
5
口口口口 |①---|
口口口口 |----|
口①②口 |②---|
口口口口 |----|
6
口②②口 |①---|
口①①口 |②---|
口口口口 |----|
口口口口 |----|
7
口口口口 |①---|
①口口① |----|
口口口口 |----|
口口口口 |----|
8
口口口口 |①---|
口口口口 |----|
①口口① |----|
口口口口 |----|
9
口口口口 |①---|
口①①口 |----|
口①①口 |----|
口口口口 |----|
10
①口口口 |①---|
口口口口 |----|
口口口口 |----|
口口口口 |----|
11
口①口口 |①---|
口口口口 |----|
口口口口 |----|
口口口口 |----|
12
口口①口 |①---|
口口口口 |----|
口口口口 |----|
口口口口 |----|
13
口口口① |①---|
口口口口 |----|
口口口口 |----|
口口口口 |----|
14
口口口口 |①---|
口口口① |----|
口口口口 |----|
口口口口 |----|
15
口口口口 |①---|
口口①口 |----|
口口口口 |----|
口口口口 |----|
16
口口口口 |①---|
口①口口 |----|
口口口口 |----|
口口口口 |----|
17
口口口口 |①---|
①②口口 |----|
口口口口 |②---|
口口口口 |----|
18
口口口口 |①---|
口口①口 |----|
口口口口 |----|
口口口口 |----|
19
口口口口 |①---|
口口②① |----|
口口口口 |②---|
口口口口 |----|
20
口口口口 |①---|
口①口口 |----|
口口口口 |----|
口口口口 |----|
21
口口口口 |①---|
口口口口 |----|
①②口口 |②---|
口口口口 |----|
22
口口口口 |①---|
口口口口 |----|
口口②① |②---|
口口口口 |----|
23
口①①口 |①---|
口②②口 |----|
口口口口 |②---|
口口口口 |----|
24
口口口口 |①---|
口口口口 |----|
口①①口 |②---|
口②②口 |----|
25
口口口口 |①---|
①口口① |----|
口口口口 |----|
口口口口 |----|
26
口口口口 |----|
口口口口 |----|
口口口口 |----|
口口口口 |----|
27
口口口口 |①---|
口口口口 |----|
①②②① |②---|
口口口口 |----|
28
口口口口 |①---|
口①①口 |----|
口口口口 |----|
口口口口 |----|
29
口口口口 |①---|
①②口口 |----|
口口口口 |②---|
口口口口 |----|
30
口口口口 |①---|
口口②① |----|
口口口口 |②---|
口口口口 |----|
31
口口口口 |①---|
口口口口 |----|
①②口口 |②---|
口口口口 |----|
32
口口口口 |①---|
口口口口 |----|
口口②① |②---|
口口口口 |----|
33
口口口口 |①---|
口①①口 |----|
口②②口 |②---|
口口口口 |----|
34
口口口口 |①---|
①②②① |----|
口口口口 |②---|
口口口口 |----|
35
口口口口 |①---|
口③口口 |----|
①②口① |②---|
口口口口 |③---|
36
口口口口 |①---|
口口①口 |②---|
口③②口 |③---|
口口口口 |----|
37
①口口① |①---|
②口口② |----|
口口口口 |②---|
口口口口 |----|
38
口口口口 |①---|
口口口口 |----|
①口口① |②---|
②口口② |----|
39
口口口口 |①---|
口口口口 |----|
口②②口 |②---|
口①①口 |----|
40
口②②口 |①---|
口①①口 |----|
口口口口 |②---|
口口口口 |----|
41
①口口① |①---|
②口口② |②---|
③口口③ |③---|
④口口④ |④---|
42
口口口口 |①---|
口②②口 |②---|
口①①口 |----|
口口口口 |----|
43
口口口口 |①---|
口①①口 |----|
口②②口 |②---|
口口口口 |----|
44
②口口② |--①-|
①口口① |--②-|
口口口口 |----|
口口口口 |----|
45
口口口口 |①---|
口①②口 |----|
口口口口 |②---|
口口口口 |----|
46
口口口口 |①---|
口口口口 |----|
口①②口 |②---|
口口口口 |----|
47
口②②口 |①---|
口①①口 |②---|
口口口口 |----|
口口口口 |----|
48
口口口口 |①---|
①口口① |----|
口口口口 |----|
口口口口 |----|
49
口口口口 |①---|
口口口口 |----|
①口口① |----|
口口口口 |----|
50
口口口口 |①---|
口①①口 |----|
口①①口 |----|
口口口口 |----|
51
口口口口 |①---|
口①①口 |----|
口②②口 |②---|
口口口口 |----|
52
②口口② |--①-|
①口口① |--②-|
口口口口 |----|
口口口口 |----|
53
口口口口 |①---|
口①②口 |----|
口口口口 |②---|
口口口口 |----|
54
口口口口 |①---|
口口口口 |----|
口①②口 |②---|
口口口口 |----|
55
口②②口 |①---|
口①①口 |②---|
口口口口 |----|
口口口口 |----|
56
口口口口 |①---|
①口口① |----|
口口口口 |----|
口口口口 |----|
57
口口口口 |①---|
④③③④ |②---|
①②②① |③---|
口口口口 |④---|
58
①②②① |①---|
口口口口 |②---|
口口口口 |----|
口口口口 |----|

不確定度: 0

最終更新:2016年04月11日 22:00