サンキュー。
大原櫻子

ADVANCED

Level: 4
BPM: 128
Notes: 373

1
口口口口 |----|
①口③口 |----|
口②口口 |--①-|
口口口口 |②-③-|
2
口②②口 |①---|
口口⑥口 |②---|
口④⑤① |③-④-|
口③口口 |⑤-⑥-|
3
②口口② |--①-|
口⑤口口 |--②-|
口④口口 |--③-|
①③口① |④-⑤-|
4
口口口口 |--①-|
④口③④ |②-③-|
⑤口②⑤ |--④-|
⑥口①⑥ |⑤-⑥-|
5
①②口① |--①-|
口口③口 |----|
口④口口 |--②-|
口口口口 |③-④-|
6
口口口口 |①---|
口口口口 |②---|
口口口口
②口①②

口③口口
口口④口
口⑤口口 |③-④-|
口口⑥口 |⑤-⑥-|
7
③⑥口③ |--①-|
②口⑤② |②-③-|
①④口① |--④-|
口口口口 |⑤-⑥-|
8
口口③口 |--①-|
⑤②口口 |②-③-|
⑥④①口 |--④-|
口口口口 |⑤-⑥-|
9
④⑤⑥⑦ |①-②-|
口口③口 |③---|
口口②口 |④-⑤-|
口①口口 |⑥-⑦-|
10
口口口⑤ |--①-|
口③④口 |②---|
口①②口 |③-④-|
口口口口 |--⑤-|
11
口④⑤口 |--①-|
口⑥口③ |②---|
口①②口 |③-④-|
口口口口 |⑤-⑥-|
12
口口口口 |①-②-|
口口①口 |③-④-|
口②③口 |----|
口④口口 |----|
13
口口口口 |①---|
①⑤⑥② |②---|
口③④口 |③-④-|
口口口口 |⑤-⑥-|
14
①口口② |--①-|
③口口④ |②---|
口⑤⑤口 |③-④-|
口口口口 |--⑤-|
15
口①②口 |--①-|
口口口③ |②---|
口口口口 |③---|
口④⑤口 |④-⑤-|
16
口口口口 |①-②-|
口③④口 |③-④-|
口①②口 |----|
口口口口 |----|
17
口口口⑥ |--①-|
①②③④ |②-③-|
口口口⑤ |④-⑤-|
口口口口 |--⑥-|
18
①口口口 |----|
口口口口 |----|
口口口口 |----|
口口口口 |--①-|
19
口口口④ |①-②-|
口①⑤口 |③---|
口⑥②口 |④-⑤-|
⑦口口③ |⑥-⑦-|
20
口口口口 |----|
①②口口 |----|
口口口口 |----|
口口口口 |①-②-|
21
口口口④ |①---|
口口①⑤ |②-③-|
口口②③ |--④-|
口口口口 |--⑤-|
22
⑤口⑥口 |①-②-|
③②①口 |③-④-|
④口口口 |--⑤-|
口口口口 |--⑥-|
23
口⑦口口 |①-②-|
⑥口⑧① |③-④-|
⑤口口② |⑤-⑥-|
口④③口 |⑦-⑧-|
24
口口④口 |①-②-|
口③口口 |③-④-|
口②①口 |----|
口口口口 |----|
25
口⑥⑥口 |①---|
②③④⑤ |②-③-|
口①①口 |④-⑤-|
口口口口 |--⑥-|
26
口口口口 |----|
口口口口 |----|
①口口口 |----|
口口口口 |--①-|
27
口口口口 |①-②-|
①②③④ |③-④-|
⑧口口⑤ |⑤-⑥-|
口⑦⑥口 |⑦-⑧-|
28
口①口口 |----|
口口②口 |----|
口口口口 |----|
口口口口 |①-②-|
29
口口口⑤ |①---|
口口口④ |②-③-|
口①口③ |④-⑤-|
口⑥口② |--⑥-|
30
④口口口 |①-②-|
③口口口 |③-④-|
②⑤⑤口 |--⑤-|
①⑥⑥口 |--⑥-|
31
④⑦⑦④ |①-②-|
③⑥⑥③ |③-④-|
②⑤⑤② |--⑤-|
①口口① |⑥-⑦-|
32
③口口③ |--①-|
②口口② |②-③-|
①口口① |----|
口口口口 |----|
33
⑥口口⑥ |①---|
口①①口 |--②-|
④②③⑤ |③-④-|
口口口口 |⑤-⑥-|
34
口⑥⑥口 |--①-|
②④⑤③ |--②-|
口口口口 |③-④-|
①口口① |⑤-⑥-|
35
口口口口 |--①-|
④⑤⑥口 |--②-|
③②口口 |③-④-|
口①①口 |⑤-⑥-|
36
口口口口 |①-②-|
口口口① |③-④-|
⑤④③② |⑤---|
口口⑥口 |--⑥-|
37
口⑦口④ |①-②-|
口⑥口③ |③-④-|
口⑤口② |--⑤-|
口口口① |⑥-⑦-|
38
口口③口 |--①-|
④口②④ |②-③-|
口口①口 |--④-|
口⑤口口 |--⑤-|
39
⑤口③⑤ |①-②-|
⑥②口⑥ |③-④-|
口口①口 |--⑤-|
④口口④ |--⑥-|
40
⑤口口⑤ |①-②-|
口②②口 |③-④-|
①③③① |--⑤-|
口④④口 |----|
41
口①①口 |①---|
口②②口 |②---|
口③③口 |③---|
口④④口 |④---|
42
②口口② |①---|
③口⑤口 |②---|
口④口口 |--③-|
①口口① |④-⑤-|
43
口②②口 |①---|
口口⑥口 |②---|
口④⑤① |③-④-|
口③口口 |⑤-⑥-|
44
②口口② |--①-|
口⑤口口 |--②-|
口④口口 |--③-|
①③口① |④-⑤-|
45
口口口口 |--①-|
④口③④ |②-③-|
⑤口②⑤ |--④-|
⑥口①⑥ |⑤-⑥-|
46
①②口① |--①-|
口口③口 |----|
口④口口 |--②-|
口口口口 |③-④-|
47
口口口口 |①---|
口口口口 |②---|
口口口口
②口①②

口③口口
口口④口
口⑤口口 |③-④-|
口口⑥口 |⑤-⑥-|
48
③⑥口③ |--①-|
②口⑤② |②-③-|
①④口① |--④-|
口口口口 |⑤-⑥-|
49
口口③口 |--①-|
⑤②口口 |②-③-|
⑥④①口 |--④-|
口口口口 |⑤-⑥-|
50
口口口口 |①-②-|
口口③口 |③---|
口口②口
口①口口

口口口口
④口⑥口
口⑤口口 |--④-|
口口口口 |⑤-⑥-|
51
口②②口 |①---|
口口⑥口 |②---|
口④⑤① |③-④-|
口③口口 |⑤-⑥-|
52
②口口② |--①-|
口⑤口口 |--②-|
口④口口 |--③-|
①③口① |④-⑤-|
53
口口口口 |--①-|
④口③④ |②-③-|
⑤口②⑤ |--④-|
⑥口①⑥ |⑤-⑥-|
54
①②口① |--①-|
口口③口 |----|
口④口口 |--②-|
口口口口 |③-④-|
55
口口口口 |①---|
口口口口 |②---|
口口口口
②口①②

口③口口
口口④口
口⑤口口 |③-④-|
口口⑥口 |⑤-⑥-|
56
③⑥口③ |--①-|
②口⑤② |②-③-|
①④口① |--④-|
口口口口 |⑤-⑥-|
57
口口③口 |--①-|
⑤②口口 |②-③-|
⑥④①口 |--④-|
口口口口 |⑤-⑥-|
58
口口口口 |①-②-|
口口③口 |③---|
口口②口 |----|
口①口口 |----|

不確定度: 0

最終更新:2016年04月11日 22:00