サンキュー。
大原櫻子

EXTREME

Level: 7
BPM: 128
Notes: 560

1
口口③口 |----|
口②口③ |----|
①口②口 |--①-|
口①口口 |②-③-|
2
②口口② |①---|
①口口口 |②---|
口口口口
①口口①

口③③口
④口口④
⑤口口⑤ |③-④-|
口⑥⑥口 |⑤-⑥-|
3
口②口② |--①-|
⑤②②② |--②-|
③⑤②④ |--③-|
①③④① |④-⑤-|
4
②口口③ |--①-|
口②③① |②-③-|
口口①口
口口口口

口口口口
⑤口口⑤
口口口口 |--④-|
⑥④④⑥ |⑤-⑥-|
5
①口口① |--①-|
②④口③ |----|
②④口③ |--②-|
口口口口 |③-④-|
6
②口口② |①---|
口口①口 |②---|
口口①口
口口口口

⑥口口⑥
⑤口口⑤
④口口④ |③-④-|
③口口③ |⑤-⑥-|
7
⑥口口⑥ |--①-|
⑤①口⑤ |②-③-|
④口②④ |--④-|
口③口口 |⑤-⑥-|
8
⑤③③⑤ |--①-|
⑥④④⑥ |②-③-|
②口口② |--④-|
①口口① |⑤-⑥-|
9
口③③口 |①-②-|
④⑤⑥⑦ |③---|
①口口① |④-⑤-|
口②②口 |⑥-⑦-|
10
口⑤⑤口 |--①-|
④口口④ |②---|
③口口③ |③-④-|
口①②口 |--⑤-|
11
口③④口 |--①-|
口⑤口口 |②---|
口①②口 |--③-|
口口口口 |④-⑤-|
12
口口口口 |①-②-|
口口①口 |③-④-|
口②③口 |----|
口④口口 |----|
13
②口口② |①---|
口⑤⑥口 |②---|
口③④口 |③-④-|
①口口① |⑤-⑥-|
14
②⑤⑤② |--①-|
口口口口 |②---|
③口口③ |③-④-|
①④④① |--⑤-|
15
②③③② |--①-|
口口口口 |②---|
口④④口 |③---|
①⑤⑤① |④-⑤-|
16
口口口④ |①-②-|
③口口口 |③-④-|
口口口② |----|
①口口口 |----|
17
口口口⑥ |--①-|
①②口口 |②-③-|
口③④⑤ |④-⑤-|
口口口口 |--⑥-|
18
口口口① |----|
口口口口 |----|
口口口口 |----|
口口口口 |--①-|
19
口口口口 |①-②-|
口口①口 |③---|
口②口④ |④-⑤-|
③⑥⑥⑤ |--⑥-|
20
口口口口 |----|
口①②口 |----|
口口口口 |----|
口口口口 |①-②-|
21
②⑤口② |①---|
④口⑥④ |②-③-|
口③③口 |--④-|
①③③① |--⑤⑥|
22
口口口口 |①-②-|
口口口口 |③-④-|
②①口④
口③③口

⑤口口⑤
口口口口
口口口口 |--⑤-|
口⑥⑥口 |--⑥-|
23
口③③口 |①-②-|
④②②④ |③-④-|
口①①口
口口口口

⑤口口⑤
口口口口
口⑦⑦口 |⑤---|
⑥口口⑥ |⑥-⑦-|
24
③口口③ |①-②-|
④②②④ |③-④-|
①口口① |----|
口口口口 |----|
25
②②⑥⑥ |①---|
口口③③ |②-③-|
口口④④ |④-⑤-|
①①⑤⑤ |--⑥-|
26
口口口① |----|
口口口口 |----|
口口口口 |----|
口口口口 |--①-|
27
①口口⑤ |①-②-|
口②⑥口 |③-④-|
口⑦③口 |⑤-⑥-|
⑧口口④ |⑦-⑧-|
28
口口口口 |----|
口口口口 |----|
口②②口 |----|
口①①口 |①-②-|
29
⑤⑥口⑤ |①---|
④①①④ |②-③-|
③⑥口③ |④-⑤-|
②口口② |--⑥-|
30
口口①口 |①-②-|
口②③口 |③-④-|
④口①④
口②③口

⑤口口⑤
口口口口
口口口口 |--⑤-|
口⑥⑥口 |--⑥-|
31
口③③口 |①-②-|
口②②口 |③-④-|
口①①口
④口口④

⑤口口⑤
口⑦口口
⑥口⑦口 |--⑤-|
口⑥口口 |⑥-⑦-|
32
口①口口 |--①-|
②口②① |②-③-|
口③口③ |----|
口口口口 |----|
33
口口口口 |①---|
口①①⑥ |--②-|
口①①⑤ |③-④-|
②③④口 |⑤-⑥-|
34
口④③② |--①-|
⑤口口口 |--②-|
⑥口口口 |③-④-|
口口口① |⑤-⑥-|
35
①④⑤口 |--①-|
②③⑥口 |--②-|
口⑥③② |③-④-|
口⑤④口 |⑤-⑥-|
36
口口口口 |--①-|
①②④③ |②-③-|
③④②① |④---|
⑤口口口 |--⑤-|
37
口⑤⑤③ |①-②-|
②⑦⑦口 |③-④-|
口⑥⑥① |--⑤-|
口④④口 |⑥-⑦-|
38
③口口③ |--①-|
②口口② |②-③-|
①口口①
口口口口

口口口口
⑤口口口
⑤口口口 |--④-|
④口口④ |--⑤-|
39
口口口口 |①-②-|
口①②③ |③-④-|
口①②③
④④④④

⑤⑤⑤⑤
⑥⑥口口
口口口口 |--⑤-|
口口口口 |--⑥-|
40
口口口口 |①-②-|
口口①① |③-④-|
②②③③ |--⑤-|
⑤④④⑤ |----|
41
①①②① |①-②-|
③③④③ |③-④-|
⑤⑤⑥⑤ |⑤-⑥-|
⑦⑦⑧⑦ |⑦-⑧-|
42
①①①① |①---|
②口②口 |②---|
口②口②
口口口口

口口⑤口
口④口⑤
③口④口 |--③-|
口③口口 |④-⑤-|
43
②③③② |①---|
④口口④ |②---|
⑤口口⑤ |③-④-|
①⑥⑥① |⑤-⑥-|
44
口②口② |--①-|
⑤②②② |--②-|
③⑤②④ |--③-|
①③④① |④-⑤-|
45
②口口③ |--①-|
口②③① |②-③-|
口口①口
口口口口

口口口口
⑤口口⑤
口口口口 |--④-|
⑥④④⑥ |⑤-⑥-|
46
①口口① |--①-|
②④口③ |----|
②④口③ |--②-|
口口口口 |③-④-|
47
②口口② |①---|
口口①口 |②---|
口口①口
口口口口

⑥口口⑥
⑤口口⑤
④口口④ |③-④-|
③口口③ |⑤-⑥-|
48
⑥口口⑥ |--①-|
⑤①口⑤ |②-③-|
④口②④ |--④-|
口③口口 |⑤-⑥-|
49
⑤③③⑤ |--①-|
⑥④④⑥ |②-③-|
②口口② |--④-|
①口口① |⑤-⑥-|
50
口口口口 |①-②-|
口口口口 |----|
①口口①
口②②口

③⑤④口
③⑤口④
⑥口⑤口 |③-④-|
口⑥口口 |⑤-⑥-|
51
②③③② |①---|
④口口④ |②---|
⑤口口⑤ |③-④-|
①⑥⑥① |⑤-⑥-|
52
口②口② |--①-|
⑤②②② |--②-|
③⑤②④ |--③-|
①③④① |④-⑤-|
53
②⑤⑤③ |--①-|
口②③① |②-③-|
口口①口 |--④-|
④⑥⑥④ |⑤-⑥-|
54
①口口① |--①-|
②④口③ |----|
②④口③ |--②-|
口口口口 |③-④-|
55
②口口② |①---|
口口①口 |②---|
口口①口
口口口口

⑥口口⑥
⑤口口⑤
④口口④ |③-④-|
③口口③ |⑤-⑥-|
56
⑥口口⑥ |--①-|
⑤①口⑤ |②-③-|
④口②④ |--④-|
口③口口 |⑤-⑥-|
57
⑤③③⑤ |--①-|
⑥④④⑥ |②-③-|
②口口② |--④-|
①口口① |⑤-⑥-|
58
口口口口 |①-②-|
口口口口 |----|
①口口① |----|
口②②口 |----|

不確定度: 0

最終更新:2016年04月11日 22:00