Dragon Night
SEKAI NO OWARI

BASIC

Level: 2
BPM: 124
Notes: 197

1
口口口口 |----|
口口口口 |----|
口口口口 |----|
口口口口 |----|
2
口口口口 |----|
口口口口 |----|
口口口口 |----|
口口口口 |----|
3
口口口口 |----|
口口口口 |----|
口口口口 |----|
口口口口 |----|
4
口口口口 |①---|
口口①口 |----|
口口口口 |----|
口口口口 |----|
5
口口口口 |----|
口口口口 |----|
口口口口 |----|
口口口口 |----|
6
口口口口 |①---|
口①口口 |----|
口口口口 |----|
口口口口 |----|
7
口口口口 |----|
口口口口 |----|
口口口口 |----|
口口口口 |----|
8
口口口口 |①---|
口口口口 |----|
口口①口 |----|
口口口口 |----|
9
口口口口 |----|
口口口口 |----|
口口口口 |----|
口口口口 |----|
10
口口口口 |①---|
口口口口 |----|
口①口口 |----|
口口口口 |----|
11
口口口口 |----|
口口口口 |----|
口口口口 |----|
口口口口 |----|
12
口口口口 |①---|
口①①口 |----|
口口口口 |----|
口口口口 |----|
13
口口口口 |----|
口口口口 |----|
口口口口 |----|
口口口口 |----|
14
口口口口 |①---|
口口②① |----|
口口口口 |②---|
口口口口 |----|
15
口口口口 |①---|
②①口口 |----|
口口口口 |②---|
口口口口 |----|
16
口口口口 |①---|
口口口口 |----|
①②口口 |②---|
口口口口 |----|
17
口口口口 |①---|
口③③口 |----|
口口①② |②---|
口口口口 |③---|
18
①口口口 |①---|
②口口口 |----|
口口口口 |②---|
口口口口 |----|
19
口口口口 |①---|
口口口口 |----|
①口口口 |②---|
②口口口 |----|
20
口口口① |①---|
口口口② |----|
口口口口 |②---|
口口口口 |----|
21
口口口口 |①---|
口口口口 |----|
口口口① |②---|
③②②口 |③---|
22
口口口口 |①---|
①①③③ |②---|
口口口口 |③---|
④口口② |④---|
23
口口口口 |①---|
①①③③ |②---|
口口口口 |③---|
④口口② |④---|
24
口口口口 |①---|
口口口口 |②---|
口口口口 |③---|
口①②③ |----|
25
口口口口 |①---|
口①口口 |②---|
口②口口 |③---|
口③口④ |④---|
26
口口口口 |①---|
③③①① |②---|
口口口口 |③---|
②口口④ |④---|
27
口口口口 |①---|
③③①① |②---|
口口口口 |③---|
②口口④ |④---|
28
口口口口 |①---|
口口口口 |②---|
口口口口 |③---|
③②①口 |----|
29
口口口口 |①---|
口②②口 |----|
①②②① |----|
口口口口 |②---|
30
口口口① |①---|
口口口② |②---|
口口口③ |③---|
口口口④ |④---|
31
①口口口 |①---|
②口口口 |②---|
③口口口 |③---|
④口口口 |④---|
32
口口①口 |①---|
口口②口 |②---|
口口③口 |③---|
口口④口 |④---|
33
口①口口 |①---|
口②口口 |②---|
口③口口 |③---|
口④口口 |④---|
34
④③②① |①---|
口口口口 |②---|
口口口口 |③---|
口口口口 |④---|
35
口口口口 |①---|
①②③④ |②---|
口口口口 |③---|
口口口口 |④---|
36
口口口口 |①---|
口口口口 |②---|
④③②① |③---|
口口口口 |④---|
37
口口口口 |①---|
口①①口 |----|
口口口口 |----|
口口口口 |----|
38
口口口① |①---|
口口口② |②---|
口口口③ |③---|
口口口④ |④---|
39
①口口口 |①---|
②口口口 |②---|
③口口口 |③---|
④口口口 |④---|
40
口口①口 |①---|
口口②口 |②---|
口口③口 |③---|
口口④口 |④---|
41
口①口口 |①---|
口②口口 |②---|
口③口口 |③---|
口④口口 |④---|
42
口口口口 |①---|
口①①口 |----|
口②②口 |②---|
口口口口 |----|
43
口口口口 |①---|
①口口① |----|
②口口② |②---|
口口口口 |----|
44
口口口口 |①---|
口口口口 |----|
口①①口 |----|
口口口口 |----|
45
口口口口 |----|
口口口口 |----|
①口口口 |----|
口口口口 |①---|
46
①①③③ |①---|
口口口口 |②---|
④口口② |③---|
口口口口 |④---|
47
①①③③ |①---|
口口口口 |②---|
口口口② |③---|
④口口口 |④---|
48
口口口口 |①---|
口口口口 |②---|
口口口口 |③---|
口①②③ |----|
49
口口口口 |①---|
口①口口 |②---|
口②口④ |③---|
口③口口 |④---|
50
③③①① |①---|
口口口口 |②---|
②口口④ |③---|
口口口口 |④---|
51
③③①① |①---|
口口口口 |②---|
②口口④ |③---|
口口口口 |④---|
52
口口口口 |①---|
口口口口 |②---|
③②①口 |③---|
口口口口 |----|
53
口③③口 |①---|
口②②口 |----|
口①①口 |②---|
口口口口 |③---|
54
①口口口 |①---|
②口口口 |②---|
③口口口 |③---|
④口口口 |④---|
55
口口口① |①---|
口口口② |②---|
口口口③ |③---|
口口口④ |④---|
56
口①口口 |①---|
口②口口 |②---|
口③口口 |③---|
口④口口 |④---|
57
口口①口 |①---|
口口②口 |②---|
口口③口 |③---|
口口④口 |④---|
58
口口口口 |①---|
④③②① |②---|
口口口口 |③---|
口口口口 |④---|
59
口口口口 |①---|
口口口口 |②---|
①②③④ |③---|
口口口口 |④---|
60
口口口口 |①---|
口口口口 |②---|
口口口口 |③---|
④③②① |④---|
61
口口口口 |①---|
口口口口 |----|
口①①口 |----|
口口口口 |----|
62
口口口口 |①---|
①①①① |----|
口口口口 |----|
口口口口 |----|

不確定度: 0

最終更新:2016年04月11日 21:59