Dragon Night
SEKAI NO OWARI

ADVANCED

Level: 5
BPM: 124
Notes: 435

1
口口口口 |----|
口口口口 |----|
口口口口 |----|
口口口口 |----|
2
口口口口 |----|
口口口口 |----|
口口口口 |----|
口口口口 |----|
3
口口口口 |----|
口口口口 |----|
口口口口 |----|
口口口口 |----|
4
⑤②①口 |①-②-|
⑥④③口 |③-④-|
⑦口口口 |⑤-⑥-|
⑧口口口 |⑦-⑧-|
5
口口口① |①-②-|
口⑤口② |③-④-|
口口口③ |⑤---|
口口口④ |----|
6
⑥②①⑤ |①-②-|
⑧④③⑦ |③-④-|
口口口口 |⑤-⑥-|
口口口口 |⑦-⑧-|
7
口口口口 |①---|
④①①④ |②---|
口②②口 |③---|
口③③口 |④---|
8
⑤②①口 |①-②-|
⑥④③口 |③-④-|
⑦口口口 |⑤-⑥-|
⑧口口口 |⑦-⑧-|
9
口口口① |①-②-|
口⑤口② |③-④-|
口口口③ |⑤---|
口口口④ |----|
10
②口口① |①-②-|
④口口③ |③-④-|
⑥口口⑤ |⑤-⑥-|
⑧口口⑦ |⑦-⑧-|
11
口口口口 |①---|
口①①口 |②---|
口②②口
口口口口

口口口口
口口口口
④④④④ |③---|
口③③口 |--④-|
12
口口口口 |----|
口口口口 |----|
口口口口 |----|
口口口口 |----|
13
③口口③ |----|
②口口② |①---|
①口口① |②---|
口口口口 |③---|
14
⑤②①口 |①-②-|
⑥④③口 |③-④-|
⑦口口口 |⑤-⑥-|
⑧口口口 |⑦-⑧-|
15
口口口① |①-②-|
口⑤口② |③-④-|
口口口③ |⑤---|
口口口④ |----|
16
⑥②①⑤ |①-②-|
⑧④③⑦ |③-④-|
口口口口 |⑤-⑥-|
口口口口 |⑦-⑧-|
17
口口口口 |①---|
④①①④ |②---|
口②②口 |③---|
口③③口 |④---|
18
⑤②①口 |①-②-|
⑥④③口 |③-④-|
⑦口口口 |⑤-⑥-|
⑧口口口 |⑦-⑧-|
19
口口口① |①-②-|
口⑤口② |③-④-|
口口口③ |⑤---|
口口口④ |----|
20
口②①口 |①-②-|
口④③口 |③-④-|
口⑥⑤口 |⑤-⑥-|
口⑧⑦口 |⑦-⑧-|
21
口口口口 |①---|
①口口① |②---|
②口口②
口口口口

口口口口
④④口口
口口⑤口 |③---|
③口⑥③ |④-⑤⑥|
22
④④①① |----|
口②⑤口 |①-②③|
口③⑥口 |----|
口口口口 |④-⑤⑥|
23
口口口口 |----|
④③口④ |①-②③|
口②口口 |----|
口口①口 |④---|
24
①⑥②① |①---|
口③口口 |②-③-|
口口④口 |④-⑤-|
口⑤口口 |--⑥-|
25
口口口口 |①-②-|
口口①口 |③-④-|
口②口口
口④③口

口口口口
⑥⑥口口
⑤口⑦⑤ |⑤---|
口口⑧口 |⑥-⑦⑧|
26
④④①① |----|
口②⑤口 |①-②③|
口③⑥口 |----|
口口口口 |④-⑤⑥|
27
口口口口 |----|
③④④口 |①-②③|
②口口口 |----|
口口①口 |④---|
28
口①①口 |①---|
③口口② |②-③-|
⑤口口④ |④-⑤-|
口口⑥口 |--⑥-|
29
④③口④ |①-②-|
口口②⑤ |③-④-|
口①口⑥ |--⑤-|
口口口⑦ |⑥-⑦-|
30
口⑤④③ |①-②-|
⑥②②⑥ |--③-|
⑦①①⑦ |④-⑤-|
口口口口 |⑥-⑦-|
31
口口口口 |--①-|
③②②口 |--②-|
④①①口 |--③-|
⑤口口口 |④-⑤-|
32
③④⑤口 |①-②-|
⑥②②⑥ |--③-|
⑦①①⑦ |④-⑤-|
口口口口 |⑥-⑦-|
33
口④③② |--①-|
⑤口口⑤ |--②-|
口①①口 |③-④-|
口口口口 |--⑤-|
34
口⑤④③ |①-②-|
⑥②②⑥ |--③-|
⑦①①⑦ |④-⑤-|
口口口口 |⑥-⑦-|
35
口口口口 |--①-|
③②②口 |--②-|
④①①口 |--③-|
⑤口口口 |④-⑤-|
36
③④⑤口 |①-②-|
⑥②②⑥ |--③-|
⑦①①⑦ |④-⑤-|
口口口口 |⑥-⑦-|
37
③口口② |①---|
⑤①①④ |--②-|
口①①⑥ |③-④-|
口口口口 |⑤-⑥-|
38
口口口口 |①---|
④①①② |②---|
③口口口 |③---|
口口口口 |④---|
39
口口口口 |①---|
④口口② |②---|
③口口① |③---|
口口口口 |④---|
40
⑧口口① |①-②-|
⑦口口② |③-④-|
⑥口口③ |⑤-⑥-|
⑤口口④ |⑦-⑧-|
41
口口①口 |①-②-|
口⑦②口 |③-④-|
口⑥③口 |⑤-⑥-|
口⑤④口 |⑦---|
42
口口口口 |①---|
口口①① |--②-|
②②口口 |----|
口口③③ |③---|
43
口口口口 |①---|
①①口口 |--②-|
口口②② |----|
③③口口 |③---|
44
口口口口 |①---|
口口口口 |----|
①①①① |----|
口口口口 |----|
45
口口口口 |----|
①①口口 |----|
口口②口 |----|
口口③口 |①-②③|
46
④④①① |----|
口②⑤口 |①-②③|
口③⑥口 |----|
口口口口 |④-⑤⑥|
47
口口口口 |----|
④③口④ |①-②③|
口②口口 |----|
口口①口 |④---|
48
①⑥②① |①---|
口③口口 |②-③-|
口口④口 |④-⑤-|
口⑤口口 |--⑥-|
49
口口口口 |①-②-|
口口①口 |③-④-|
口②口口
口④③口

口口口口
⑥⑥口口
⑤口⑦⑤ |⑤---|
口口⑧口 |⑥-⑦⑧|
50
④④①① |----|
口②⑤口 |①-②③|
口③⑥口 |----|
口口口口 |④-⑤⑥|
51
口口口口 |----|
③④④口 |①-②③|
②口口口 |----|
口口①口 |④---|
52
口①①口 |①---|
③口口② |②-③-|
⑤⑥⑥④ |④-⑤-|
口口口口 |--⑥-|
53
口口口口 |①---|
口口口口 |----|
口口口口 |②---|
③①①② |③---|
54
口⑤④③ |①-②-|
⑥②②⑥ |--③-|
⑦①①⑦ |④-⑤-|
口口口口 |⑥-⑦-|
55
口口口口 |--①-|
③②②口 |--②-|
④①①口 |--③-|
⑤口口口 |④-⑤-|
56
③④⑤口 |①-②-|
⑥②②⑥ |--③-|
⑦①①⑦ |④-⑤-|
口口口口 |⑥-⑦-|
57
口④③② |--①-|
⑤口口⑤ |--②-|
口①①口 |③-④-|
口口口口 |--⑤-|
58
口⑤④③ |①-②-|
⑥②②⑥ |--③-|
⑦①①⑦ |④-⑤-|
口口口口 |⑥-⑦-|
59
口口口口 |--①-|
③②②口 |--②-|
④①①口 |--③-|
⑤口口口 |④-⑤-|
60
③④⑤口 |①-②-|
⑥②②⑥ |--③-|
⑦①①⑦ |④-⑤-|
口口口口 |⑥-⑦-|
61
口口口口 |①---|
③①①② |--②-|
⑤①①④ |③-④-|
口口口⑥ |⑤-⑥-|
62
口口口口 |①---|
口①①口 |----|
口①①口 |----|
口口口口 |----|

不確定度: 0

最終更新:2016年04月11日 21:58