Amazing Parade
Czecho No Republic

BASIC

Level: 3
BPM: 160
Notes: 217

1
口口口口 |----|
口口口口 |----|
口口口口 |----|
口口口口 |----|
2
口口口口 |①---|
口①①口 |----|
口①①口 |----|
口口口口 |----|
3
口口口口 |----|
口口口口 |----|
口口口口 |----|
口口口口 |----|
4
①①①① |①---|
口口口口 |----|
口②口口 |②---|
口③口口 |③---|
5
口口口口 |①---|
口口①口 |②---|
口口②口 |③---|
口口③口 |----|
6
①①口口 |①---|
口口②② |----|
口口口口 |②---|
口口口口 |----|
7
口口①① |①---|
②②口口 |----|
口口口口 |②---|
口口口口 |----|
8
①①①① |①---|
口口口口 |----|
口口②口 |②---|
口口③口 |③---|
9
口口口口 |①---|
口①口口 |②---|
口②口口 |③---|
口③口口 |----|
10
口口①① |①---|
②②口口 |----|
口口口口 |②---|
口口口口 |----|
11
①①口口 |①---|
口口②② |----|
口口口口 |②---|
口口口口 |----|
12
①①①① |①---|
口口口口 |----|
口口口口 |----|
口口口口 |----|
13
口口口口 |①---|
口①口口 |----|
口口②口 |②---|
口口口口 |----|
14
口口口口 |①---|
口口口口 |----|
口口口口 |②---|
口口②① |----|
15
口口口口 |①---|
口口口口 |----|
口口口口 |②---|
②①口口 |----|
16
口口口口 |①---|
口口②口 |----|
口①口口 |②---|
口口口口 |----|
17
口口②① |①---|
口口口口 |----|
口口口口 |②---|
口口口口 |----|
18
②①口口 |①---|
口口口口 |----|
口口口口 |②---|
口口口口 |----|
19
口口口口 |①---|
口①口口 |----|
口口②口 |②---|
口口口口 |----|
20
口口口口 |①---|
口口口口 |----|
口②口口 |②---|
口①口口 |----|
21
口口口口 |①---|
①①口口 |----|
口口口口 |----|
口口口口 |----|
22
口口口口 |①---|
口口口口 |----|
口口②口 |②---|
口口①口 |----|
23
口口口口 |①---|
口口①① |----|
口口②② |②---|
口口口口 |----|
24
口口口口 |①---|
口②口口 |----|
口①口口 |②---|
口口口口 |----|
25
①①口口 |①---|
口口口口 |----|
口口口口 |----|
口口口口 |----|
26
口口口口 |①---|
口口②口 |----|
口口①口 |②---|
口口口口 |----|
27
口口①① |①---|
口口②② |----|
口口口口 |②---|
口口口口 |----|
28
口口口口 |①---|
口①口口 |----|
口口②口 |②---|
口口口口 |----|
29
口口口口 |----|
口口口口 |----|
口口口口 |----|
口口口口 |----|
30
口口口口 |①---|
口口口口 |----|
口口①口 |②---|
口②口口 |----|
31
口口口口 |①---|
口口口口 |----|
口①口口 |②---|
口口②口 |----|
32
口口口口 |----|
口口口口 |----|
口口口口 |----|
口口口口 |----|
33
口口口口 |①---|
口口①口 |----|
口②口口 |②---|
口口口口 |----|
34
口口口口 |①---|
口①口口 |----|
口口②口 |②---|
口口口口 |----|
35
口口口口 |----|
口口口口 |----|
口口口口 |----|
口口口口 |----|
36
口口口口 |①---|
口口口口 |----|
口口①口 |②---|
口②口口 |----|
37
口口口口 |----|
口口口口 |----|
口①口口 |①---|
口口口口 |----|
38
口口口口 |①---|
口口口口 |----|
口口口口 |----|
口口①口 |----|
39
口口口口 |①---|
口口口口 |----|
口口①口 |②---|
口②口口 |----|
40
口口口口 |①---|
②口口② |----|
口①①口 |②---|
口口口口 |----|
41
②②②② |①---|
口①①口 |----|
口口口口 |②---|
口口口口 |----|
42
口口口口 |----|
口口口口 |----|
口口口口 |----|
口口口口 |----|
43
①①①① |①---|
口口口口 |----|
口②口口 |②---|
口③口口 |③---|
44
口口口口 |①---|
口口①口 |②---|
口口②口 |③---|
口口③口 |----|
45
①①口口 |①---|
口口②② |----|
口口口口 |②---|
口口口口 |----|
46
口口①① |①---|
②②口口 |----|
口口口口 |②---|
口口口口 |----|
47
①①①① |①---|
口口口口 |----|
口口②口 |②---|
口口③口 |③---|
48
口口口口 |①---|
口①口口 |②---|
口②口口 |③---|
口③口口 |----|
49
口口①① |①---|
②②口口 |----|
口口口口 |②---|
口口口口 |----|
50
①①口口 |①---|
口口②② |----|
口口口口 |②---|
口口口口 |----|
51
①①①① |①---|
口②口口 |②---|
口③口口 |③---|
口④口口 |④---|
52
口口④口 |①---|
口口③口 |②---|
口口②口 |③---|
口口①口 |④---|
53
①①口口 |①---|
口口口② |②---|
③③口口 |③---|
口口口④ |④---|
54
口口口④ |①---|
③③口口 |②---|
口口口② |③---|
①①口口 |④---|
55
口①①口 |①---|
口②口口 |②---|
口③口口 |③---|
口④口口 |④---|
56
口口④口 |①---|
口口③口 |②---|
口口②口 |③---|
口口①口 |④---|
57
①①口口 |①---|
口口口② |②---|
③③口口 |③---|
口口口④ |④---|
58
口口口④ |①---|
③③口口 |②---|
口口口② |③---|
①①口口 |④---|
59
口①①口 |①---|
口口口② |②---|
口口口③ |③---|
口口④口 |④---|
60
口④口口 |①---|
③口口口 |②---|
②口口口 |③---|
口①口口 |④---|
61
口口口口 |①---|
口口①① |----|
②②口口 |②---|
口口口口 |----|
62
口口口口 |①---|
②②口口 |----|
口口①① |②---|
口口口口 |----|
63
口②①口 |①---|
③口口口 |②---|
④口口口 |③---|
口口口口 |④---|
64
口口口口 |①---|
口口口④ |②---|
口口口③ |③---|
口①②口 |④---|
65
口口口口 |①---|
①①口口 |----|
口口②② |②---|
口口口口 |----|
66
口口口口 |①---|
口口②② |----|
①①口口 |②---|
口口口口 |----|
67
①①①① |①---|
口口口口 |----|
口口口口 |----|
口口口口 |----|

不確定度: 0

最終更新:2016年04月11日 21:57