Amazing Parade
Czecho No Republic

ADVANCED

Level: 7
BPM: 160
Notes: 491

1
口口口口 |----|
口口口口 |----|
口口口口 |----|
口口口口 |----|
2
①口口② |①-②-|
③口口④ |③-④-|
⑤口口⑥ |⑤-⑥-|
⑦口口⑧ |⑦-⑧-|
3
口②①口 |①-②-|
口④③口 |③-④-|
口⑥⑤口 |⑤-⑥-|
口⑧⑦口 |⑦-⑧-|
4
口①①口 |①---|
口②口口 |--②-|
⑥口口⑤ |③-④-|
④口口③ |⑤-⑥-|
5
口②①口 |①-②-|
口④③口 |③-④-|
口⑦⑤口 |⑤---|
⑥口口口 |⑥-⑦-|
6
口口①① |①--②|
口②口口 |--③-|
⑥口口③ |④-⑤-|
口⑤④口 |⑥---|
7
①①口口 |①--②|
口口②口 |--③-|
口④⑤口 |④-⑤-|
③口口⑥ |⑥---|
8
口①①口 |①---|
口②口口 |--②-|
⑥口口⑤ |③-④-|
④口口③ |⑤-⑥-|
9
口②①口 |①-②-|
口④③口 |③-④-|
口⑦⑤口 |⑤---|
⑥口口口 |⑥-⑦-|
10
口口①① |①--②|
口②口口 |--③-|
⑥口口③ |④-⑤-|
口⑤④口 |⑥---|
11
①①口口 |①--②|
口口②口 |--③-|
口④⑤口 |④-⑤-|
③口口⑥ |⑥---|
12
①①①① |①---|
口口口口 |----|
口口口口 |----|
口口口口 |----|
13
⑤⑤口口 |①--②|
口口④① |--③-|
口②口口 |④---|
口口口③ |⑤---|
14
口口口口 |①--②|
①口口口 |--③-|
口口②口
③口口口

口口口口
⑤④口口
口口口口 |④---|
口口口口 |--⑤-|
15
⑤⑤口口 |①--②|
口口④① |--③-|
口②口口 |④---|
口口口③ |⑤---|
16
口口口口 |①--②|
①口口口 |--③-|
口口②口
③口口口

口口口口
⑤④口口
口口口口 |④---|
口口口口 |--⑤-|
17
⑤⑤口口 |①--②|
口口④① |--③-|
口②口口 |④---|
口口口③ |⑤---|
18
口口口口 |①--②|
①口口口 |--③-|
口口②口
③口口口

口口口口
⑤④口口
口口口口 |④---|
口口口口 |--⑤-|
19
⑤⑤口口 |①--②|
口口④① |--③-|
口②口口 |④---|
口口口③ |⑤---|
20
口口口④ |--①-|
口⑤口① |②③-④|
口口⑥口 |--⑤-|
⑦②③口 |⑥-⑦-|
21
口口①口 |①---|
口口口口 |----|
口口口口 |----|
口口口口 |----|
22
①口口⑤ |--①-|
口口⑥口 |②-③④|
口⑦口② |--⑤-|
口③④口 |⑥-⑦-|
23
①①口口 |①---|
口口口口 |--②-|
口口口② |③---|
③③口口 |----|
24
口口口口 |--①-|
口⑤口① |②-③④|
②口⑥口 |--⑤-|
⑦④③口 |⑥-⑦-|
25
口口①口 |①---|
口口口口 |----|
口口口口 |----|
口口口口 |----|
26
①口口⑤ |--①-|
口口⑥口 |②-③④|
口⑦口② |--⑤-|
口③④口 |⑥-⑦-|
27
①①④④ |①---|
口⑤⑤口 |--②-|
口口口② |③---|
③③口口 |④-⑤-|
28
②②口口 |①---|
口口口口 |②---|
①①口④ |③---|
口口③③ |④---|
29
④④③② |①---|
口⑤⑤① |②---|
口口口口 |③---|
口口口口 |④-⑤-|
30
口口②② |①---|
口口口口 |②---|
口口①①
口口口口

口口口口
④④口口
口⑤⑤口 |③---|
③③口口 |④-⑤-|
31
口口②② |①---|
口口口口 |②---|
④口口口 |③---|
③③①① |④---|
32
②③④④ |①---|
①⑤⑤口 |②---|
口口口口 |③---|
口口口口 |④-⑤-|
33
②②口口 |①---|
口口口口 |②---|
①①口口
口口口口

口口口口
口口④④
口⑤⑤口 |③---|
口口③③ |④-⑤-|
34
②②口④ |①---|
⑤口④口 |②---|
口⑤口口 |③--④|
①①③③ |--⑤-|
35
③③口口 |①--②|
口④④① |----|
②口①口 |----|
口②口口 |③-④-|
36
口口②② |①---|
口口口口 |②---|
④口①① |③---|
③③口口 |④---|
37
⑤⑤②② |①---|
①③③口 |②-③-|
④④口口 |④---|
口口口口 |⑤---|
38
口口口④ |①---|
口⑤⑤③ |②---|
口口口② |③---|
口口①① |④-⑤-|
39
②②口口 |①---|
口口口口 |②---|
①①③③ |③---|
④口口口 |--④-|
40
口口口口 |①---|
④口口口 |--②-|
④②③口 |③---|
口口口① |--④-|
41
④口口口 |①---|
口②③① |--②-|
口②③① |③-④-|
口口口口 |----|
42
口②①口 |①-②-|
口④③口 |③-④-|
口⑥⑤口 |⑤-⑥-|
口⑧⑦口 |⑦-⑧-|
43
口①①口 |①---|
口②口口 |--②-|
⑥口口⑤ |③-④-|
④口口③ |⑤-⑥-|
44
口②①口 |①-②-|
口④③口 |③-④-|
口⑦⑤口 |⑤---|
⑥口口口 |⑥-⑦-|
45
口口①① |①--②|
口②口口 |--③-|
⑥口口③ |④-⑤-|
口⑤④口 |⑥---|
46
①①口口 |①--②|
口口②口 |--③-|
口④⑤口 |④-⑤-|
③口口⑥ |⑥---|
47
口①①口 |①---|
口②口口 |--②-|
⑥口口⑤ |③-④-|
④口口③ |⑤-⑥-|
48
口②①口 |①-②-|
口④③口 |③-④-|
口⑦⑤口 |⑤---|
⑥口口口 |⑥-⑦-|
49
口口①① |①--②|
口②口口 |--③-|
⑥口口③ |④-⑤-|
口⑤④口 |⑥---|
50
①①口口 |①--②|
口口②口 |--③-|
口④⑤口 |④-⑤-|
③口口⑥ |⑥---|
51
①口①口 |①---|
口口口口 |--②-|
②口口口
口口口口

⑥口口口
口口③口
口口口口 |③-④-|
口④口⑤ |⑤-⑥-|
52
口口口口 |①-②-|
口②口③ |③-④-|
口④①口
口口口口

口口⑤口
口口口口
⑦口⑦口 |⑤---|
⑥口⑥口 |⑥-⑦-|
53
⑥①⑥① |①--②|
⑤②⑤口 |--③-|
口④口④ |④-⑤-|
口③口③ |⑥---|
54
⑥②⑥② |①--②|
⑤口⑤口 |--③-|
①④①④ |④-⑤-|
口③口③ |⑥---|
55
⑥①口① |①---|
②口⑤口 |--②-|
口④口口 |③-④-|
口口③口 |⑤-⑥-|
56
口口口① |①-②-|
口②口口 |③-④-|
口⑦③⑦ |⑤---|
④⑥⑤⑥ |⑥-⑦-|
57
①口①口 |①--②|
口口②口 |--③-|
口口口口
③口③口

⑦⑥口⑥
口⑤口⑤
④口④口 |④-⑤-|
口口口口 |⑥-⑦-|
58
⑦口⑦口 |①-②③|
口⑤①⑤ |--④-|
④⑥④⑥ |⑤-⑥-|
口②③口 |⑦---|
59
口①口① |①---|
②口口口 |②-③-|
口口口③
口口口口

口口口⑦
口口口⑤
④口口口 |④-⑤-|
⑥口口口 |⑥-⑦-|
60
⑥④②口 |①-②-|
口⑧口口 |③-④-|
口⑧口⑦ |⑤-⑥-|
口①③⑤ |⑦-⑧-|
61
口⑤⑤口 |①---|
③⑥①④ |②-③-|
③⑥①④ |④---|
口②②口 |⑤-⑥-|
62
口口口口 |①---|
③口①③ |②---|
口口①口 |③---|
②④④② |④---|
63
①①①① |①---|
②口口口 |②-③-|
口口口③
口口口口

口口口⑦
口口口⑤
④口口口 |④-⑤-|
⑥口口口 |⑥-⑦-|
64
⑥④②口 |①-②-|
口⑧口口 |③-④-|
口⑧口⑦ |⑤-⑥-|
口①③⑤ |⑦-⑧-|
65
口⑤⑤口 |①---|
③⑥①④ |②-③-|
③⑥①④ |④---|
口②②口 |⑤-⑥-|
66
口口口口 |①---|
口口①口 |②---|
口口①口
②口口②

③口口③
口口口口
口④④口 |③---|
口口口口 |④---|
67
口①①口 |①---|
①①①① |----|
口口口口 |----|
口口口口 |----|

不確定度: 0

最終更新:2016年04月11日 21:57