Green Green Dance
Mutsuhiko Izumi

BASIC

Level: 4
BPM: 165
Notes: 315

1
口口口口 |----|
口口口口 |----|
口口口口 |----|
口口口口 |----|
2
口口口口 |①---|
口口口口 |②---|
③口④④ |③---|
②②口① |④---|
3
①口②② |①---|
④④口③ |②---|
口口口口 |③---|
口口口口 |④---|
4
口④口口 |①---|
口口③口 |②---|
口②口口 |③---|
口口①口 |④---|
5
②口口① |①---|
口③③口 |②---|
口④④口 |③---|
口口口口 |④---|
6
口口口口 |①---|
口口口口 |②---|
③口④④ |③---|
②②口① |④---|
7
①口②② |①---|
④④口③ |②---|
口口口口 |③---|
口口口口 |④---|
8
口口口口 |①---|
口②②口 |----|
口口口口 |②---|
口①①口 |----|
9
①口口① |①---|
②口口② |②---|
③口口③ |③---|
口口口口 |----|
10
口口口口 |①---|
口①①口 |----|
②口口② |②---|
口口口口 |----|
11
口口口口 |①---|
口口口口 |②---|
口③④口 |③---|
口①②口 |④---|
12
口②②口 |①---|
①口口① |----|
口口口口 |②---|
口口口口 |----|
13
口口口口 |①---|
口①②口 |②---|
口③④口 |③---|
口口口口 |④---|
14
口口口口 |①---|
②口口② |----|
口口口口 |②---|
①口口① |----|
15
口①②口 |①---|
口③④口 |②---|
口口口口 |③---|
口口口口 |④---|
16
口口口口 |①---|
口口口口 |----|
口①①口 |②---|
②口口② |----|
17
①口口① |①---|
②口口② |②---|
③口口③ |③---|
口口口口 |----|
18
口口口口 |①---|
口①①口 |----|
口口口口 |----|
口口口口 |----|
19
口口口口 |①---|
口口口口 |----|
口①②口 |②---|
口口口口 |----|
20
口口口口 |①---|
口口口口 |----|
①口口① |----|
口口口口 |----|
21
口④④口 |①---|
口③③口 |②---|
口②②口 |③---|
口①①口 |④---|
22
①口口① |①---|
口口口口 |----|
口口口口 |----|
口口口口 |----|
23
口口口口 |①---|
①口口② |----|
口口口口 |②---|
口口口口 |----|
24
口口口口 |①---|
口口口口 |----|
口①①口 |----|
口口口口 |----|
25
口③③口 |①---|
①口口② |②---|
口口口口 |③---|
口口口口 |----|
26
口口口口 |①---|
口①①口 |----|
②口口② |②---|
口口口口 |----|
27
口口口口 |①---|
口口口口 |②---|
口③④口 |③---|
口①②口 |④---|
28
口②②口 |①---|
①口口① |----|
口口口口 |②---|
口口口口 |----|
29
口口口口 |①---|
口①②口 |②---|
口③④口 |③---|
口口口口 |④---|
30
口口口口 |①---|
②口口② |----|
口口口口 |②---|
①口口① |----|
31
口①②口 |①---|
口③④口 |②---|
口口口口 |③---|
口口口口 |④---|
32
口口口口 |①---|
口口口口 |----|
口①①口 |②---|
②口口② |----|
33
①口口① |①---|
②口口② |②---|
③口口③ |③---|
口口口口 |----|
34
口①①口 |①---|
②口口口 |----|
③口口口 |②---|
口口口口 |③---|
35
口口口口 |①---|
口口口口 |②---|
口口口口 |③---|
①②③④ |④---|
36
口口④③ |①---|
口口口② |②---|
口口口① |③---|
口口口口 |④---|
37
②①口口 |①---|
③口口口 |②---|
口口口口 |③---|
口口口口 |----|
38
口口口口 |①---|
口口口口 |----|
①③口① |②---|
②口口口 |③---|
39
口口口② |①---|
口口①③ |②---|
口口口④ |③---|
口口口口 |④---|
40
④口口口 |①---|
口③口口 |②---|
口口②口 |③---|
口口口① |④---|
41
口①①口 |①---|
②口口② |②---|
口③③口 |③---|
口口口口 |----|
42
口口口口 |①---|
口口口口 |②---|
口③④口 |③---|
①口口② |④---|
43
口③④口 |①---|
口①②口 |②---|
口口口口 |③---|
口口口口 |④---|
44
口口口口 |①---|
①口口② |②---|
③口口④ |③---|
口口口口 |④---|
45
口口口口 |①---|
口口口口 |②---|
口①②口 |③---|
口③④口 |④---|
46
口口口口 |①---|
③口口④ |②---|
①口口② |③---|
口口口口 |④---|
47
①③④② |①---|
口口口口 |②---|
口口口口 |③---|
口口口口 |④---|
48
口口口口 |①---|
口口口口 |----|
①口口② |②---|
口口口口 |----|
49
口口口口 |①---|
①口口① |②---|
②口口② |③---|
③口口③ |----|
50
口口口口 |①---|
口口口口 |----|
①①②② |②---|
口口口口 |----|
51
口口口口 |①---|
①①②② |----|
口口口口 |②---|
口口口口 |----|
52
口口口口 |①---|
口口口② |----|
①口口口 |②---|
口口口口 |----|
53
口口口口 |①---|
口口②口 |----|
口①口口 |②---|
口口口口 |----|
54
口口口口 |①---|
口口口口 |----|
②②口口 |②---|
口口①① |----|
55
②②口口 |①---|
口口①① |----|
口口口口 |②---|
口口口口 |----|
56
口口口口 |①---|
口口口口 |----|
口②②口 |②---|
口①①口 |----|
57
②口口② |①---|
口①①口 |----|
口口口口 |②---|
口口口口 |----|
58
口口口口 |①---|
口①①口 |----|
②口口② |②---|
口口口口 |----|
59
口口口口 |①---|
口口口口 |②---|
口③④口 |③---|
口①②口 |④---|
60
口②②口 |①---|
①口口① |----|
口口口口 |②---|
口口口口 |----|
61
口口口口 |①---|
口①②口 |②---|
口③④口 |③---|
口口口口 |④---|
62
口口口口 |①---|
②口口② |----|
口口口口 |②---|
①口口① |----|
63
口①②口 |①---|
口③④口 |②---|
口口口口 |③---|
口口口口 |④---|
64
口口口口 |①---|
口口口口 |----|
口①①口 |②---|
②口口② |----|
65
①口口① |①---|
②口口② |②---|
③口口③ |③---|
口口口口 |----|
66
口口口口 |①---|
①③④② |②---|
口口口口 |③---|
口口口口 |④---|
67
口口口口 |①---|
口口口口 |②---|
口①②口 |③---|
口③④口 |④---|
68
口口口口 |①---|
口口口口 |②---|
③口口④ |③---|
①口口② |④---|
69
③口口④ |①---|
①口口② |②---|
口口口口 |③---|
口口口口 |④---|
70
口①①口 |①---|
口②②口 |----|
口口口口 |②---|
口口口口 |----|
71
口口口口 |①---|
口口口口 |----|
口①①口 |②---|
口②②口 |----|
72
口口口口 |①---|
②口口② |----|
①口口① |②---|
口口口口 |----|
73
口①①口 |①---|
口②②口 |②---|
口③③口 |③---|
口口口口 |----|
74
口口口口 |①---|
①口口① |②---|
②口口② |③---|
③口口③ |----|
75
③③③③ |①---|
②②②② |②---|
①①①① |③---|
口口口口 |----|


不确定度: 0

タグ:

+ タグ編集
  • タグ:

このサイトはreCAPTCHAによって保護されており、Googleの プライバシーポリシー利用規約 が適用されます。

最終更新:2012年11月10日 14:17