Summer Holiday
達見 恵 featured by 佐野宏晃

BASIC

Level: 4
BPM: 109
Notes: 193

1
口口口口 |----|
口口口口 |----|
口口口口 |----|
口口口口 |----|
2
口④口口 |----|
口口③口 |-①--|
口②口口 |②--③|
口口①口 |--④-|
3
口口口口 |----|
①②③④ |----|
口口口口 |-①-②|
口口口口 |-③-④|
4
口③③口 |----|
口②口口 |----|
口口①口 |①---|
口口口口 |②--③|
5
口口口口 |----|
口①①口 |---①|
口②②口 |----|
口口口口 |---②|
6
口口①口 |----|
口口口口 |①---|
口口口口
口口口口

口④④口
口②口口
口口③口 |②---|
口口口口 |③--④|
7
口口口口 |----|
口口①口 |①---|
口②口口 |②---|
口口③口 |③---|
8
口口④口 |①---|
口③口口 |②---|
口口②口 |③---|
口①口口 |④---|
9
口①口口 |①---|
口③②口 |----|
口口口口 |②---|
口口口口 |③---|
10
口口口口 |①---|
口口口口 |----|
②口①口 |②---|
口口口口 |----|
11
口口①口 |①---|
口②③口 |----|
口口口口 |②---|
口口口口 |③---|
12
口③③口 |①---|
口口口口 |----|
口①口② |②---|
口口口口 |---③|
13
口③③口 |----|
口②口口 |----|
口口①口 |①---|
口口口口 |②--③|
14
口③③口 |----|
口口②口 |----|
口①口口 |①---|
口口口口 |②--③|
15
口③③口 |----|
口②口口 |----|
口口①口 |①---|
口口口口 |②--③|
16
口口口口 |----|
口口口口 |----|
口口口口 |----|
口口口口 |----|
17
口④口口 |①---|
口口③口 |②---|
口②口口 |③---|
口口①口 |④---|
18
口口口口 |①---|
①口口① |----|
③口口② |②---|
口口口口 |③---|
19
口④口口 |①---|
口口③口 |②---|
口②口口 |③---|
口口①口 |④---|
20
口口口口 |①---|
①口口① |----|
③口口② |②---|
口口口口 |③---|
21
口④口口 |①---|
口口③口 |②---|
口②口口 |③---|
口口①口 |④---|
22
口口口口 |①---|
①口口① |----|
③口口② |②---|
口口口口 |③---|
23
口口口口 |①---|
口③③口 |---②|
口②②口 |----|
口①①口 |---③|
24
口③③口 |----|
②口口① |----|
口口口口 |①---|
口口口口 |②--③|
25
口④④口 |----|
口口③口 |①---|
口②①口 |②---|
口口口口 |③--④|
26
口③③口 |----|
②口口① |----|
口口口口 |①---|
口口口口 |②--③|
27
口④④口 |----|
口口③口 |①---|
口②①口 |②---|
口口口口 |③--④|
28
口③③口 |----|
②口口① |----|
口口口口 |①---|
口口口口 |②--③|
29
口口口口 |----|
口口口③ |①---|
口②口① |②---|
口口口口 |③---|
30
口口口口 |①---|
口①口口 |----|
口②②口 |----|
口口口口 |---②|
31
口②②口 |----|
①口口① |----|
口口口口 |①---|
口口口口 |---②|
32
口③③口 |----|
②口口① |----|
口口口口 |①---|
口口口口 |②--③|
33
口④④口 |----|
口口③口 |①---|
口②①口 |②---|
口口口口 |③--④|
34
口③③口 |----|
②口口① |----|
口口口口 |①---|
口口口口 |②--③|
35
口④④口 |----|
口口③口 |①---|
口②①口 |②---|
口口口口 |③--④|
36
口③③口 |----|
②口口① |----|
口口口口 |①---|
口口口口 |②--③|
37
口口口口 |----|
口口口口 |①---|
口③②① |②---|
口口口口 |③---|
38
口②②口 |①---|
口口口口 |--②-|
①口口口 |----|
口口口口 |----|
39
口口口口 |①---|
口口口口 |②---|
②⑤⑤① |③---|
④口口③ |④--⑤|
40
口②②口 |----|
口①①口 |----|
口口口口 |①---|
口口口口 |---②|
41
口③③口 |----|
②口口① |----|
口口口口 |①---|
口口口口 |②--③|
42
口②②口 |----|
①口口① |----|
口口口口 |①---|
口口口口 |---②|
43
口口口口 |----|
口①①口 |---①|
口②②口 |----|
口口口口 |---②|
44
口④④口 |----|
口口③口 |①---|
口②口口 |②---|
口口①口 |③--④|
45
口口口口 |----|
①口口① |----|
口口口口 |①---|
口口口口 |----|
46
口⑤⑤口 |①---|
④口口③ |②---|
②口口① |③---|
口口口口 |④--⑤|
47
口口口口 |----|
口①①口 |---①|
口②②口 |----|
口口口口 |---②|
48
口口口口 |----|
口口口口 |---①|
口口口口 |----|
②①①② |---②|
49
③口口③ |---①|
②④④② |---②|
①口口① |----|
口口口口 |③--④|

不确定度: 0

最終更新:2012年11月06日 21:35