Amazing Parade
Czecho No Republic

EXTREME

Level: 9
BPM: 160
Notes: 717

1
口口口口 |----|
口口口口 |----|
口口口口 |----|
口口口口 |----|
2
③口①① |①-②③|
⑦口口④ |④⑤⑥⑦|
口⑤②口
口口口⑥

口⑫⑬⑮
口口⑨口
⑩口口⑪ |⑧⑨⑩⑪|
⑭⑧口口 |⑫⑬⑭⑮|
3
①口口口 |①-②③|
④①⑤⑦ |④⑤⑥⑦|
口②口口
口⑥口③

⑫⑧⑨⑬
口口口口
⑭口口⑪ |⑧⑨⑩⑪|
⑩口口口 |⑫⑬⑭-|
4
口④③口 |①---|
⑥①⑤③ |--②-|
④①①⑤ |③-④-|
②⑥①① |⑤-⑥-|
5
①口口口 |①-②-|
口①口④ |③-④-|
口③②口
③口④②

⑥⑤口口
⑥口口口
⑤口口⑦ |⑤---|
口口口⑦ |⑥-⑦-|
6
口⑤⑥① |①--②|
口①①④ |--③-|
③①①口 |④-⑤-|
①②口口 |⑥---|
7
①口⑥口 |①--②|
⑤①①口 |--③-|
口①①④ |④-⑤-|
③②口① |⑥---|
8
口口口① |①---|
口口①① |--②-|
口①①口
口口口②

口③④口
③⑤口⑥
⑤口口④ |③-④-|
口口⑥口 |⑤-⑥-|
9
口口口① |①-②-|
④口①口 |③-④-|
口②③口
②④口③

口口⑤⑥
口口口⑥
⑦口口⑤ |⑤---|
⑦口口口 |⑥-⑦-|
10
①⑥⑤口 |①--②|
④①①口 |--③-|
口①①③ |④-⑤-|
口口②① |⑥---|
11
口⑥口① |①--②|
口①①⑤ |--③-|
④①①口 |④-⑤-|
①口②③ |⑥---|
12
①口口口 |①--②|
①①口④ |③-④-|
口①①口
口②③口

口口⑤口
口口口口
口⑦口口 |⑤---|
⑥口口口 |⑥-⑦-|
13
①口⑥⑥ |①--②|
口⑤口口 |③-④-|
④口口口 |⑤---|
口②③口 |⑥---|
14
口口⑤口 |①--②|
①口口④ |③-④-|
口⑦口口 |⑤---|
⑥②③口 |⑥-⑦-|
15
①口口口 |①--②|
口⑤口口 |③-④-|
④口口⑥ |⑤---|
口②③⑥ |⑥---|
16
①⑤口① |①--②|
④口口口 |③-④-|
口口⑦口 |⑤---|
口③②⑥ |⑥-⑦-|
17
⑥⑥口① |①--②|
口口⑤口 |③-④-|
口口口④ |⑤---|
口③②口 |⑥---|
18
口⑤口口 |①--②|
④口口① |③-④-|
口口⑦口 |⑤---|
口③②⑥ |⑥-⑦-|
19
口⑥⑤① |①--②|
⑧口口⑦ |③-④-|
口⑩⑨④ |⑤⑥⑦⑧|
⑫③②⑪ |⑨⑩⑪⑫|
20
口口⑤① |①-②-|
⑥③④口 |③④-⑤|
口⑧口口 |--⑥-|
口②口⑦ |⑦-⑧-|
21
口⑥口① |①-②-|
口口口③ |③④⑤⑥|
⑤口④口
②口②口

⑩口⑦口
⑧⑧⑨口
口口口口 |-⑦⑧-|
口口⑩⑩ |⑨-⑩-|
22
口口⑤① |--①-|
口⑥口口 |②-③④|
⑦④③口 |--⑤-|
②口口口 |⑥-⑦-|
23
⑥①口⑥ |①-②-|
⑤口③⑤ |--③-|
口④口① |④-⑤-|
③口②④ |--⑥-|
24
⑤②口口 |--①-|
口⑥⑦口 |②-③④|
口③④口 |--⑤-|
口口①口 |⑥-⑦-|
25
口⑥口口 |①-②-|
口口口③ |③④⑤⑥|
⑤口④口
②①②口

⑩口⑦口
⑧⑧⑨口
口口口口 |-⑦⑧-|
口口⑩⑩ |⑨-⑩-|
26
口④口① |--①-|
⑤口口① |--②③|
口②③⑥ |--④-|
口口口口 |⑤-⑥-|
27
口口③口 |①-②-|
口口口口 |--③-|
③②口口
口口①口

口⑥口口
⑥④⑦口
口⑦⑤口 |④-⑤-|
口口口④ |⑥-⑦-|
28
②口口② |①---|
口口口口 |②---|
④口口① |③---|
③口①③ |④---|
29
口口④口 |①---|
口⑤口④ |②---|
口口⑤③ |③---|
口①②口 |④-⑤-|
30
②④口② |①---|
④口⑤口 |②---|
①⑤口口 |③---|
③①口③ |④-⑤-|
31
②口口② |①---|
④口口口 |②---|
口口口① |③---|
③口①③ |④---|
32
口①②口 |①---|
口口⑤③ |②---|
口⑤口④ |③---|
口口④口 |④-⑤-|
33
②①口② |①---|
①⑤口口 |②---|
④口⑤口 |③---|
③④口③ |④-⑤-|
34
②④①② |①---|
④口⑤① |②---|
口口口⑤ |③--④|
③口口③ |--⑤-|
35
口口口口 |①--②|
口①口口 |----|
①②口口
口口②口

口口口口
口④口口
③口④口 |----|
口③口口 |③-④-|
36
②④①② |①---|
口口口① |②---|
口口口口 |③---|
③口口③ |④---|
37
⑤④①⑤ |①---|
④口③口 |②-③-|
口③口② |④---|
口口②口 |⑤---|
38
口②③口 |①---|
口⑤口④ |②---|
口口⑤口 |③---|
①口口① |④-⑤-|
39
②口④② |①---|
⑤口口口 |②---|
①⑤口口 |③---|
③①口③ |④-⑤-|
40
口口口口 |①---|
口口③① |②-③-|
口口①口
口②口③

⑦口口口
口④口口
⑦⑤⑥口 |④-⑤-|
④口口口 |⑥-⑦-|
41
口口口① |①-②-|
口口口④ |③-④-|
口口口①
口③②④

口⑦口⑧
⑤口口口
口口⑥口 |⑤-⑥-|
⑤口口口 |⑦-⑧-|
42
①口口口 |①-②③|
④①⑤⑦ |④⑤⑥⑦|
口②口口
口⑥口③

⑫⑧⑨⑬
口口口口
⑭口口⑪ |⑧⑨⑩⑪|
⑩口口口 |⑫⑬⑭-|
43
口④③口 |①---|
⑥①⑤③ |--②-|
④①①⑤ |③-④-|
②⑥①① |⑤-⑥-|
44
①口口口 |①-②-|
口①口④ |③-④-|
口③②口
③口④②

⑥⑤口口
⑥口口口
⑤口口⑦ |⑤---|
口口口⑦ |⑥-⑦-|
45
口⑤⑥① |①--②|
口①①④ |--③-|
③①①口 |④-⑤-|
①②口口 |⑥---|
46
①口⑥口 |①--②|
⑤①①口 |--③-|
口①①④ |④-⑤-|
③②口① |⑥---|
47
口口口① |①---|
口口①① |--②-|
口①①口
口口口②

口③④口
③⑤口⑥
⑤口口④ |③-④-|
口口⑥口 |⑤-⑥-|
48
口口口① |①-②-|
④口①口 |③-④-|
口②③口
②④口③

口口⑤⑥
口口口⑥
⑦口口⑤ |⑤---|
⑦口口口 |⑥-⑦-|
49
①口口口 |①--②|
口①①口 |--③-|
口①①③
口口②①

口⑥⑤⑦
④口口口
口口⑦口 |④-⑤-|
口口口口 |⑥-⑦-|
50
①⑥⑦口 |①-②③|
⑦③⑤⑦ |--④-|
⑦①口⑦ |⑤-⑥-|
④⑦口② |⑦---|
51
口⑤④② |①---|
⑦①⑥④ |②-③-|
⑤①①⑥ |④-⑤-|
③⑦①① |⑥-⑦-|
52
①口口口 |①-②-|
口①口④ |③-④-|
口③②口
③口④②

⑦⑤⑥口
⑦口口口
⑤口口⑧ |⑤-⑥-|
口口口⑧ |⑦-⑧-|
53
口⑥⑦① |①--②|
⑧①①⑤ |③-④-|
④①①口 |⑤-⑥-|
①②③口 |⑦-⑧-|
54
①口口口 |①--②|
口①①口 |③-④-|
口①①口
④②③①

口口⑦口
⑥⑧口口
口口口⑤ |⑤-⑥-|
口口口口 |⑦-⑧-|
55
③口口① |①-②-|
口口①① |③-④-|
口①①口
口口②④

口⑤⑥口
⑤⑦口⑧
⑦口口⑥ |⑤-⑥-|
口口⑧口 |⑦-⑧-|
56
口口口① |①-②-|
④口①口 |③-④-|
口②③口
②④口③

口⑥⑤⑦
口口口⑦
⑧口口⑤ |⑤-⑥-|
⑧口口口 |⑦-⑧-|
57
①口口口 |①--②|
口①①口 |③-④-|
口①①④
口③②①

口⑦⑥⑧
⑤口口口
口口⑧口 |⑤-⑥-|
口口口口 |⑦-⑧-|
58
①⑥⑦口 |①-②③|
⑦③⑤⑦ |--④-|
⑦①口⑦ |⑤-⑥-|
④⑦口② |⑦---|
59
②④⑥⑧ |①-②-|
口口口口 |③-④-|
口口口口 |⑤-⑥-|
⑦⑤③① |⑦-⑧-|
60
⑤⑦口口 |①-②-|
③口口② |③-④-|
①口⑧④ |⑤-⑥-|
口口⑧⑥ |⑦-⑧-|
61
口口①③ |①-②-|
口④口口 |③-④-|
口①口口
④②口口

口口口口
⑧口⑤⑤
⑥⑧口⑦ |⑤-⑥-|
口口口口 |⑦-⑧-|
62
②④⑥⑧ |①-②-|
口⑤口③ |③-④-|
口⑦①口 |⑤-⑥-|
⑦⑤③① |⑦-⑧-|
63
⑤⑦口口 |①-②-|
③口①② |③-④-|
①口①④ |⑤-⑥-|
口口⑧⑥ |⑦-⑧-|
64
口口①③ |①-②-|
⑧口口⑤ |③-④-|
⑥⑧口⑦ |⑤-⑥-|
④②口口 |⑦-⑧-|
65
②④口口 |①-②-|
口④口口 |③-④-|
口口①口
口口③①

口口⑥⑧
口口⑤口
口口⑧口 |⑤-⑥-|
⑦⑤口口 |⑦-⑧-|
66
⑤⑦⑤⑦ |①-②-|
③③口② |③-④-|
①①口④ |⑤-⑥-|
口口口⑥ |⑦---|
67
口口口口 |①---|
口口①口 |----|
口①①口 |----|
口①①口 |----|

不確定度: 0

最終更新:2016年04月11日 21:56