放課後ストライド
Last Note.

ADVANCED

Level: 6
BPM: 225
Notes: 445

1
口口口口 |----|
口口口口 |----|
口口口口 |----|
口口口口 |----|
2
口口口口 |①---|
口口口口 |----|
口①①口 |----|
口口口口 |----|
3
口口口口 |----|
口①①口 |----|
口口口口 |----|
口口口口 |①---|
4
口口口口 |①---|
口口口口 |----|
口①①口 |----|
口口口口 |----|
5
口口口口 |----|
口口口口 |----|
①口口① |----|
口口口口 |①---|
6
口口口口 |①---|
口口口口 |----|
口①①口 |----|
口口口口 |----|
7
口口口口 |----|
口①①口 |----|
口口口口 |----|
口口口口 |①---|
8
口口口口 |①---|
②口口② |----|
口①①口 |②---|
口口口口 |----|
9
口①①口 |①---|
口口口口 |----|
口②②口 |②---|
口口口口 |----|
10
④口口④ |①---|
①②③口 |②---|
口口口口 |③---|
口口口口 |--④-|
11
口口口口 |----|
口口口口 |----|
口②①口 |①---|
口口口口 |②---|
12
口口口口 |①---|
口③②① |②---|
④口口④ |③---|
口口口口 |--④-|
13
口①②口 |----|
口口口口 |----|
口口口口 |①---|
口口口口 |②---|
14
④口口④ |①---|
①②③口 |②---|
口口口口 |③---|
口口口口 |--④-|
15
口口口口 |----|
口口口口 |----|
口②①口 |①---|
口口口口 |②---|
16
口口口口 |①---|
口③②① |②---|
④口口④ |③---|
口口口口 |--④-|
17
口①②口 |----|
口口口口 |----|
口口口口 |①---|
口口口口 |②---|
18
④口口④ |①---|
①口口口 |②---|
口②口口 |③---|
口口③口 |--④-|
19
口口口口 |----|
口②①口 |----|
口口口口 |①---|
口口口口 |②---|
20
口口口口 |①---|
口④④① |②---|
口口②口 |③---|
口③口口 |--④-|
21
①口口② |----|
口口口口 |----|
口口口口 |①---|
口口口口 |②---|
22
④口口④ |①---|
①口口口 |②---|
口②口口 |③---|
口口③口 |--④-|
23
口口口口 |----|
口②①口 |----|
口口口口 |①---|
口口口口 |②---|
24
口口口口 |①---|
口④④① |②---|
口口②口 |③---|
口③口口 |--④-|
25
①口口② |----|
口口口口 |----|
口口口口 |①---|
口口口口 |②---|
26
口口口口 |①---|
口口口口 |②---|
①②③口 |③---|
④口口口 |--④-|
27
③口口③ |----|
口②②口 |①---|
口口口口 |②---|
口口口① |③---|
28
口口口口 |①---|
口口口口 |②---|
口③②① |③---|
口口口④ |--④-|
29
口口口口 |----|
口口②口 |①---|
口③口口 |②---|
①口口口 |③---|
30
口口口口 |①---|
①口口① |----|
口口口口 |②---|
口②②口 |----|
31
口口口口 |①---|
口口口口 |----|
②②①① |②---|
口口口口 |----|
32
口①口① |①---|
②口②口 |--②-|
口③口③ |----|
口口口口 |③---|
33
口口口口 |--①-|
口②③口 |----|
口口口口 |②---|
①口①口 |③---|
34
口口口口 |①---|
口口口口 |②---|
①②③口 |③---|
④口口口 |--④-|
35
③口口③ |----|
口②②口 |①---|
口口口口 |②---|
口口口① |③---|
36
口口口口 |①---|
口口口口 |②---|
口③②① |③---|
口口口④ |--④-|
37
口口口口 |----|
口口②口 |①---|
口③口口 |②---|
①口口口 |③---|
38
口口口口 |①---|
①口口① |----|
口口口口 |②---|
口②②口 |----|
39
口口口口 |①---|
口口口口 |----|
②②①① |②---|
口口口口 |----|
40
口①口① |①---|
②口②口 |--②-|
口③口③ |----|
口口口口 |③---|
41
口口口口 |--①-|
口②③口 |----|
口口口口 |②---|
①口①口 |③---|
42
①口口① |①---|
口口口口 |----|
②②②② |----|
口口口口 |②---|
43
口口口口 |----|
口口口口 |----|
口口口口 |----|
口口口口 |----|
44
口口口口 |①---|
口④④① |②---|
口口②口 |③---|
口③口口 |--④-|
45
①口口② |----|
口口口口 |----|
口口口口 |①---|
口口口口 |②---|
46
④口口④ |①---|
①口口口 |②---|
口②口口 |③---|
口口③口 |--④-|
47
口口口口 |----|
口②①口 |----|
口口口口 |①---|
口口口口 |②---|
48
口口口口 |①---|
口④④① |②---|
口口②口 |③---|
口③口口 |--④-|
49
①口口② |----|
口口口口 |----|
口口口口 |①---|
口口口口 |②---|
50
口口口口 |①---|
口口口口 |②---|
口③③口 |③---|
④①②口 |--④-|
51
③口口③ |----|
口②②口 |①---|
口口口口 |②---|
口口口① |③---|
52
口口口口 |①---|
口口口口 |②---|
口③③口 |③---|
口②①④ |--④-|
53
口口口口 |----|
口②②口 |①---|
口③口口 |②---|
①口口口 |③---|
54
口口口口 |①---|
①口口① |----|
口口口口 |②---|
口②②口 |----|
55
口口口口 |①---|
口口口口 |----|
②②①① |②---|
口口口口 |----|
56
口①口① |①---|
②口②口 |--②-|
口③口③ |----|
口口口口 |③---|
57
口口口口 |--①-|
口②③口 |----|
口口口口 |②---|
①口①口 |③---|
58
口口口口 |①---|
口口口口 |②---|
口③③口 |③---|
④①②口 |--④-|
59
③口口③ |----|
口②②口 |①---|
口口口口 |②---|
口口口① |③---|
60
口口口口 |①---|
口口口口 |②---|
口③③口 |③---|
口②①④ |--④-|
61
口口口口 |----|
口②②口 |①---|
口③口口 |②---|
①口口口 |③---|
62
口口口口 |①---|
①口口① |----|
口口口口 |②---|
口②②口 |----|
63
口口口口 |①---|
口口口口 |----|
②②①① |②---|
口口口口 |----|
64
口①口① |①---|
②口②口 |--②-|
口③口③ |----|
口口口口 |③---|
65
口口口口 |--①-|
口②③口 |----|
口口口口 |②---|
①口①口 |③---|
66
口口口口 |①---|
③③口口 |--②-|
①①②② |----|
口口口口 |③---|
67
口②③口 |--①-|
口口①① |----|
口口口口 |②---|
口口口口 |③---|
68
口口口口 |①---|
口口③③ |--②-|
②②①① |----|
口口口口 |③---|
69
口③②口 |--①-|
①①口口 |----|
口口口口 |②---|
口口口口 |③---|
70
口口口口 |①---|
③③口口 |--②-|
①①②② |----|
口口口口 |③---|
71
口②③口 |--①-|
口口①① |----|
口口口口 |②---|
口口口口 |③---|
72
①③③① |①---|
口口口口 |--②-|
口②②口 |----|
口口口口 |③---|
73
口口口口 |----|
口①①口 |----|
口口口口 |--①-|
口口口口 |----|
74
口口口口 |①---|
③③口口 |--②-|
口口②② |----|
①①口口 |③---|
75
口②①① |--①-|
口口③口 |----|
口口口口 |②---|
口口口口 |③---|
76
口口口口 |①---|
口口③③ |--②-|
②②口口 |----|
口口①① |③---|
77
①①②口 |--①-|
口③口口 |----|
口口口口 |②---|
口口口口 |③---|
78
口口口口 |①---|
③③口口 |--②-|
口口②② |----|
①①口口 |③---|
79
口口①① |--①-|
口口③口 |----|
口②口口 |②---|
口口口口 |③---|
80
口口口口 |①---|
口口口口 |----|
口②②口 |②---|
①口口① |----|
81
①①①① |①---|
口口口口 |----|
口②②口 |--②-|
口口口口 |----|
82
口③③④ |①---|
①口口② |②---|
口口口口 |③---|
口口口口 |--④-|
83
③口口口 |--①-|
口①②口 |--②-|
口口口口 |--③-|
口口口口 |----|
84
口口口口 |①---|
④③③口 |②---|
②口口① |③---|
口口口口 |--④-|
85
口②①口 |--①-|
口口口③ |--②-|
口口口口 |--③-|
口口口口 |----|
86
口口口口 |①---|
口③③口 |--②-|
①口口② |----|
口①②口 |③---|
87
口③③口 |----|
①口口② |①---|
口口口口 |②---|
口口口口 |③---|
88
口口口口 |①---|
口③③口 |--②-|
②口口① |----|
口②①口 |③---|
89
口②②口 |----|
口口口口 |①---|
口①①口 |②---|
口口口口 |----|
90
口③③④ |①---|
①口口② |②---|
口口口口 |③---|
口口口口 |--④-|
91
③口口口 |--①-|
口①②口 |--②-|
口口口口 |--③-|
口口口口 |----|
92
口口口口 |①---|
④③③口 |②---|
②口口① |③---|
口口口口 |--④-|
93
口②①口 |--①-|
口口口③ |--②-|
口口口口 |--③-|
口口口口 |----|
94
口口口口 |①---|
口③③口 |--②-|
①口口② |----|
口①②口 |③---|
95
口③③口 |----|
①口口② |①---|
口口口口 |②---|
口口口口 |③---|
96
口口口口 |①---|
口③③口 |--②-|
②口口① |----|
口②①口 |③---|
97
口口口口 |----|
②口口① |①---|
口③③口 |②---|
口口口口 |③---|
98
口口口口 |①---|
口口口口 |--②-|
口③③口 |----|
①②②① |③---|
99
口口①口 |----|
口②口口 |①---|
口口③口 |②---|
口口口口 |③---|
100
口口口口 |①---|
口口口口 |--②-|
口③③口 |----|
①②②① |③---|
101
②①口② |①---|
口口①口 |----|
口口口口 |②---|
口口口口 |----|
102
口口口口 |①---|
②③③① |--②-|
②口口① |----|
口口口口 |③---|
103
口①①口 |①---|
口口口口 |----|
口口口口 |----|
口口口口 |----|
104
口口口口 |①---|
②③③① |--②-|
②口口① |----|
口口口口 |③---|
105
口①①口 |①---|
口④口口 |②---|
口口③口 |③---|
口②口口 |④---|
106
口口口口 |①---|
②③③① |--②-|
②口口① |----|
口口口口 |③---|
107
口①①口 |①---|
②口口② |----|
口②②口 |②---|
口口口口 |----|

不確定度: 0

最終更新:2016年04月11日 03:53