放課後ストライド
Last Note.

EXTREME

Level: 9
BPM: 225
Notes: 746

1
口口口口 |----|
口口口口 |----|
口口口口 |----|
口口口口 |----|
2
④口口⑤ |①---|
口口口口 |--②-|
③口②口 |③-④-|
口①①口 |--⑤-|
3
口⑤⑤口 |--①-|
口①②口 |②-③-|
口③④口 |④---|
口口口口 |⑤---|
4
③口口② |①---|
口②口口 |----|
口口口口 |②---|
口①①口 |--③-|
5
口⑤⑤口 |①-②-|
口口④① |③-④-|
口口②③ |----|
口口口口 |⑤---|
6
③口口口 |①---|
口②口口 |----|
口口口② |②---|
口①①口 |--③-|
7
口⑤⑤口 |①-②-|
口口口口 |③-④-|
①③口口 |----|
④②口口 |⑤---|
8
口口口口 |①---|
①口口② |----|
口口口口 |②---|
口②①口 |----|
9
口①②口 |①---|
口口口口 |----|
②口口① |②---|
口口口口 |----|
10
口①口口 |①---|
口②①⑤ |②---|
④③②口 |③---|
口口③口 |④-⑤-|
11
③口口③ |--①-|
②口口口 |②---|
口口口① |③---|
④口口④ |④---|
12
口口①口 |①---|
⑤①②口 |②---|
口②③④ |③---|
口③口口 |④-⑤-|
13
④口口④ |--①-|
口口口② |②---|
①口口口 |③---|
③口口③ |④---|
14
口①口口 |①---|
口②①⑤ |②---|
④③②口 |③---|
口口③口 |④-⑤-|
15
③口口③ |--①-|
②口口口 |②---|
口口口① |③---|
④口口④ |④---|
16
口口①口 |①---|
⑤①②口 |②---|
口②③④ |③---|
口③口口 |④-⑤-|
17
④口口④ |--①-|
口口口② |②---|
①口口口 |③---|
③口口③ |④---|
18
口①⑤口 |①---|
①口②④ |②---|
口②口③ |③---|
口口③口 |④-⑤-|
19
③②口③ |--①-|
①口口口 |②---|
口口口口 |③---|
④口口④ |④---|
20
口⑤①口 |①---|
④②口① |②---|
③口②口 |③---|
口③口口 |④-⑤-|
21
④口②④ |--①-|
口口口① |②---|
口口口口 |③---|
③口口③ |④---|
22
口①⑤口 |①---|
①口②④ |②---|
口②口③ |③---|
口口③口 |④-⑤-|
23
③②口③ |--①-|
①口口口 |②---|
口口口口 |③---|
④口口④ |④---|
24
口⑤①口 |①---|
④②口① |②---|
③口②口 |③---|
口③口口 |④-⑤-|
25
④口②④ |--①-|
口口口① |②---|
口口口口 |③---|
③口口③ |④---|
26
⑦口口⑥ |①-②-|
口⑤⑤口 |③-④-|
③④②① |⑤---|
口口口口 |⑥-⑦-|
27
口⑤⑤口 |--①-|
口口口口 |②-③-|
口口口口 |④---|
①②③④ |⑤---|
28
⑥口口⑦ |①-②-|
口口④① |③-④-|
口⑤②③ |⑤---|
口口口口 |⑥-⑦-|
29
口口④口 |--①-|
①⑦⑤口 |②-③-|
口口⑥③ |④-⑤-|
口②口口 |⑥-⑦-|
30
①口口④ |①---|
口口口③ |--②-|
口②⑤口 |③-④-|
口口口口 |--⑤-|
31
②④⑤口 |①-②-|
①⑤④口 |--③-|
口③口口 |④---|
口口口口 |⑤---|
32
③口口① |①---|
③口⑤① |②-③-|
口口口⑤ |--④-|
口②④口 |⑤---|
33
⑤口口⑤ |①-②-|
口②口口 |--③-|
②④④口 |④---|
①口口③ |⑤---|
34
口⑥⑥⑦ |①-②-|
口②①口 |③-④-|
口⑤⑤口 |⑤---|
口③④口 |⑥-⑦-|
35
口⑤⑤口 |--①-|
①口口④ |②-③-|
口口口口 |④---|
②口口③ |⑤---|
36
⑦口口⑥ |①-②-|
口⑤④口 |③-④-|
①②③口 |⑤---|
口口口口 |⑥-⑦-|
37
口口①口 |--①-|
④口⑦⑤ |②-③-|
口⑥口② |④-⑤-|
口③口口 |⑥-⑦-|
38
④口口① |①---|
③口口口 |--②-|
口⑤②口 |③-④-|
口口口口 |--⑤-|
39
口⑥④② |①-②-|
口③⑤① |--③-|
口⑦⑦口 |④-⑤-|
口口口口 |⑥-⑦-|
40
①口口③ |①---|
①⑤口③ |②-③-|
⑤口口口 |--④-|
口④②口 |⑤---|
41
口⑤⑤口 |①-②-|
口口②口 |--③-|
口④④② |④---|
③口口① |⑤---|
42
①口口① |①---|
①②②① |----|
②口口② |----|
口②②口 |②---|
43
口口口口 |----|
口口口口 |----|
口口口口 |----|
口口口口 |----|
44
口⑤①口 |①---|
④②口① |②---|
③口②口 |③---|
口③口口 |④-⑤-|
45
④口②④ |--①-|
口口口① |②---|
口口口口 |③---|
③口口③ |④---|
46
口①⑤口 |①---|
①口②④ |②---|
口②口③ |③---|
口口③口 |④-⑤-|
47
③②口③ |--①-|
①口口口 |②---|
口口口口 |③---|
④口口④ |④---|
48
口⑤①口 |①---|
④②口① |②---|
③口②口 |③---|
口③口口 |④-⑤-|
49
④口②④ |--①-|
口口口① |②---|
口口口口 |③---|
③口口③ |④---|
50
⑥⑤⑤⑦ |①-②-|
口①③口 |③-④-|
②口口④ |⑤---|
口口口口 |⑥-⑦-|
51
口⑤⑤口 |--①-|
口口口口 |②-③-|
口口口口 |④---|
④③②① |⑤---|
52
⑦口⑥口 |①-②-|
①④口口 |③-④-|
③②⑤口 |⑤---|
⑦口口口 |⑥-⑦-|
53
口口口① |----|
口②②口 |①---|
口②②④ |②---|
口③口① |③-④-|
54
①口口④ |①---|
口口口口 |--②-|
②③口⑤ |③-④-|
口口口口 |--⑤-|
55
②⑤④口 |①-②-|
⑥口口③ |--③-|
口⑦①口 |④-⑤-|
口口口口 |⑥-⑦-|
56
③口口① |①---|
口③①口 |②-③-|
口口口⑤ |--④-|
口④②⑤ |⑤---|
57
口⑤⑤口 |①-②-|
口③①口 |--③-|
②④④口 |④---|
②口口口 |⑤---|
58
口⑥⑥⑦ |①-②-|
①口口④ |③-④-|
②⑤⑤③ |⑤---|
口口口口 |⑥-⑦-|
59
口⑤⑤口 |--①-|
①口口④ |②-③-|
口口口口 |④---|
②口口③ |⑤---|
60
⑦口口⑥ |①-②-|
口②④口 |③-④-|
①⑤③口 |⑤---|
口口口口 |⑥-⑦-|
61
口口①口 |--①-|
④口口⑤ |②-③-|
⑦口口② |④-⑤-|
口③⑥口 |⑥-⑦-|
62
④口口① |①---|
口口口口 |--②-|
⑤口③② |③-④-|
口口口口 |--⑤-|
63
口④⑤② |①-②-|
③口口⑥ |--③-|
口①⑦口 |④-⑤-|
口口口口 |⑥-⑦-|
64
①口口③ |①---|
口①③口 |②-③-|
⑤口口口 |--④-|
⑤②④口 |⑤---|
65
口⑤⑤口 |①-②-|
口①③口 |--③-|
口④④② |④---|
口口口② |⑤---|
66
口③口③ |①---|
口口口口 |--②-|
①口口② |----|
口②①口 |③---|
67
①口①口 |--①-|
口②③口 |----|
口③②口 |②---|
口口口口 |③---|
68
③口③口 |①---|
口口口口 |--②-|
②口口① |----|
口①②口 |③---|
69
口①口① |--①-|
口③②口 |----|
口②③口 |②---|
口口口口 |③---|
70
口③口③ |①---|
口口口口 |--②-|
①口口② |----|
口②①口 |③---|
71
①口①口 |--①-|
口②③口 |----|
口③②口 |②---|
口口口口 |③---|
72
③③③③ |①---|
①口口① |--②-|
口口口口 |----|
②口口② |③---|
73
口口口口 |--①-|
②口③① |----|
口④⑤口 |②-③-|
口口口口 |④-⑤-|
74
口③口③ |①---|
口口口口 |--②-|
①口口② |----|
口②①口 |③---|
75
①口①口 |--①-|
口②③口 |----|
口③②口 |②---|
口口口口 |③---|
76
③口③口 |①---|
口口口口 |--②-|
②口口① |----|
口①②口 |③---|
77
口①口① |--①-|
口③②口 |----|
口②③口 |②---|
口口口口 |③---|
78
口③口③ |①---|
口口口口 |--②-|
①口口② |----|
口②①口 |③---|
79
①口①口 |--①-|
口②③口 |----|
口③②口 |②---|
口口口口 |③---|
80
口口口口 |①---|
④口口② |②---|
①口口③ |③---|
①③①③ |④---|
81
①①①① |①---|
口②③口 |----|
口口口口 |--②-|
口④口口 |③-④-|
82
⑥口口⑦ |①-②-|
口⑦口口 |③-④-|
②③④⑤ |⑤---|
口口①口 |⑥-⑦-|
83
口①③口 |--①-|
③口口① |--②-|
口口口口 |--③-|
②口④② |--④-|
84
口口⑦口 |①-②-|
⑦口口⑥ |③-④-|
⑤④③② |⑤---|
口①口口 |⑥-⑦-|
85
①口④② |--①-|
口②①④ |--②-|
口口口口 |--③-|
③口口③ |--④-|
86
口③口口 |①---|
③④⑤口 |②-③-|
①⑤④② |--④-|
口①②口 |⑤---|
87
①口口① |----|
口口口口 |①---|
口口口口 |②---|
③口口② |③---|
88
口①①⑤ |①---|
①④③① |②-③-|
②③④② |--④-|
⑤②②口 |⑤---|
89
②①①口 |----|
②③③② |①---|
口口口② |②-③-|
口口口口 |----|
90
⑥口口⑦ |①-②-|
口⑦口口 |③-④-|
②③④⑤ |⑤---|
口口①口 |⑥-⑦-|
91
口①③口 |--①-|
③口口① |--②-|
口口口口 |--③-|
②口④② |--④-|
92
口口⑦口 |①-②-|
⑦口口⑥ |③-④-|
⑤④③② |⑤---|
口①口口 |⑥-⑦-|
93
①口④② |--①-|
口②①④ |--②-|
口口口口 |--③-|
③口口③ |--④-|
94
口③口口 |①---|
③④⑤口 |②-③-|
①⑤④② |--④-|
口①②口 |⑤---|
95
①口口① |----|
口口口口 |①---|
口口口口 |②---|
③口口② |③---|
96
口①①⑤ |①---|
①④③① |②-③-|
②③④② |--④-|
⑤②②口 |⑤---|
97
①①口口 |----|
口口②② |①---|
③③口口 |②---|
口口口口 |③---|
98
③口口③ |①---|
口②口口 |--②-|
口口②① |----|
口①①口 |③---|
99
口口①口 |----|
口②口口 |①---|
口口③口 |②---|
口口口口 |③---|
100
口口口口 |①---|
口口②口 |--②-|
①②口口 |----|
③①①③ |③---|
101
④口口④ |①---|
②口口② |②---|
④③③④ |③---|
口①①口 |④---|
102
口②①口 |①---|
口①②口 |--②-|
口口口口 |----|
②③③① |③---|
103
①口口① |①---|
口口口口 |②---|
①②③① |③---|
口④口口 |④---|
104
口②①口 |①---|
口①②口 |--②-|
口口口口 |----|
②③③① |③---|
105
①口口① |①---|
④口口④ |②---|
①②③① |③---|
口口口口 |④---|
106
口②①口 |①---|
口①②口 |--②-|
口口口口 |----|
②③③① |③---|
107
①②②① |①---|
②口口② |----|
①②②① |②---|
口口口口 |----|
108
口口口口 |----|
口口口口 |----|
口口口口 |----|
口口口口 |----|
109
口口口口 |----|
口口口口 |----|
口口口口 |----|
口口口口 |----|
110
口口口口 |----|
口口口口 |----|
口口口口 |----|
口口口口 |----|
111
口口口口 |----|
口口口口 |----|
口口口口 |----|
口口口口 |----|
112
口口口口 |①---|
②口口口 |----|
口口口口 |----|
口口①口 |②---|
113
口口口① |----|
口口口口 |----|
口口口口 |①---|
口口口口 |----|

不確定度: 0

最終更新:2016年04月11日 03:52