勇敢な髑髏
新井大樹

BASIC

Level: 3
BPM: 160
Notes: 255

1
口口口口 |----|
口口口口 |----|
口口口口 |----|
口口口口 |----|
2
口口口口 |①---|
①口口口 |----|
口口口口 |----|
口口口口 |----|
3
口口口口 |①---|
口①口口 |----|
口口口口 |----|
口口口口 |----|
4
口口口口 |①---|
口口①口 |----|
口口口口 |----|
口口口口 |----|
5
口口口口 |①---|
口口口① |----|
口口口口 |----|
口口口口 |----|
6
口口口口 |①---|
口口口口 |----|
口口口① |----|
口口口口 |----|
7
口口口口 |①---|
口口口口 |----|
口口①口 |----|
口口口口 |----|
8
口口口口 |①---|
口口口口 |----|
口①口口 |----|
口口口口 |----|
9
口口口口 |①---|
口口口口 |----|
①口口口 |----|
口口口口 |----|
10
口口口口 |①---|
①口口口 |----|
口口口口 |----|
口口口口 |----|
11
口①口口 |①---|
口口口口 |----|
口口口口 |----|
口口口口 |----|
12
口口口口 |①---|
口口①口 |----|
口口口口 |----|
口口口口 |----|
13
口口口① |①---|
口口口口 |----|
口口口口 |----|
口口口口 |----|
14
口口口口 |①---|
口口口① |----|
口口口口 |----|
口口口口 |----|
15
口口口口 |①---|
口口口口 |----|
口口①口 |----|
口口口口 |----|
16
口口口口 |①---|
口①口口 |----|
口口口口 |----|
口口口口 |----|
17
口口口口 |①---|
口口口口 |----|
①口口口 |----|
口口口口 |----|
18
口口口口 |①---|
口口口口 |----|
口②②口 |②---|
口①①口 |----|
19
口口口口 |①---|
口口口口 |----|
②口口② |②---|
口①①口 |----|
20
口口口口 |①---|
口①①口 |----|
口②②口 |②---|
口口口口 |----|
21
口口口口 |①---|
①口口① |----|
②口口② |②---|
口口口口 |----|
22
口口口口 |①---|
口口口口 |----|
口口②口 |②---|
口①口口 |----|
23
口口②口 |①---|
口①口口 |----|
口口口口 |②---|
口口口口 |----|
24
口口口口 |①---|
②①①② |----|
口口口口 |②---|
口口口口 |----|
25
口口口口 |①---|
口②②口 |--②-|
①②②① |----|
口口口口 |----|
26
④口口口 |①---|
③口口口 |②---|
②口口口 |③---|
①口口口 |④---|
27
口①口口 |①---|
口②口口 |②---|
口③口口 |③---|
口④口口 |④---|
28
口口④口 |①---|
口口③口 |②---|
口口②口 |③---|
口口①口 |④---|
29
口口口① |①---|
口口口② |②---|
口口口③ |③---|
口口口④ |④---|
30
口口④口 |①---|
口口③口 |②---|
口口②口 |③---|
口口①口 |④---|
31
口①口口 |①---|
口②口口 |②---|
口③口口 |③---|
口④口口 |④---|
32
④口口口 |①---|
③口口口 |②---|
②口口口 |③---|
①口口口 |④---|
33
口①口口 |①---|
口②口口 |②---|
口③口口 |③---|
口④口口 |④---|
34
口口④口 |①---|
口口口③ |②---|
口口口② |③---|
口口①口 |④---|
35
口①口口 |①---|
②口口口 |②---|
③口口口 |③---|
口④口口 |④---|
36
口口口口 |①---|
口③④口 |②---|
口②①口 |③---|
口口口口 |④---|
37
①口口① |①---|
②口口② |----|
口口口口 |②---|
口口口口 |----|
38
口④口口 |①---|
③口口口 |②---|
②口口口 |③---|
口①口口 |④---|
39
口口①口 |①---|
口口口② |②---|
口口口③ |③---|
口口④口 |④---|
40
口口口口 |①---|
口④③口 |②---|
口①②口 |③---|
口口口口 |④---|
41
口口口口 |①---|
口口口口 |----|
①①①① |----|
口口口口 |----|
42
口口口口 |①---|
③口口口 |②---|
②④④口 |③---|
口①口口 |④---|
43
口口口口 |①---|
口口口③ |②---|
口④④② |③---|
口口①口 |④---|
44
口口口口 |①---|
①③口口 |②---|
②④口口 |③---|
口口口口 |④---|
45
口口口口 |①---|
口口①③ |②---|
口口②④ |③---|
口口口口 |④---|
46
口口口口 |①---|
口口口口 |----|
口②②口 |②---|
口①①口 |----|
47
口口口口 |①---|
口①①口 |----|
口②②口 |②---|
口口口口 |----|
48
口口口口 |①---|
口口口口 |----|
①口口① |②---|
②口口② |----|
49
口口口口 |①---|
口②②口 |--②-|
①②②① |----|
口口口口 |----|
50
②②①① |①---|
口口口口 |----|
口口口口 |②---|
口口口口 |----|
51
口口口口 |①---|
①②③口 |②---|
口口口口 |③---|
口口口口 |----|
52
①①②② |①---|
口口口口 |----|
口口口口 |②---|
口口口口 |----|
53
口口口口 |①---|
口③②① |②---|
口口口口 |③---|
口口口口 |----|
54
②②①① |①---|
口口口口 |----|
口口口口 |②---|
口口口口 |----|
55
口口口口 |①---|
①②③口 |②---|
口口口口 |③---|
口口口口 |----|
56
①①②② |①---|
口口口口 |----|
口口口口 |②---|
口口口口 |----|
57
③③③③ |①---|
①②②① |②---|
口口口口 |③---|
口口口口 |----|
58
口口口口 |①---|
②②①① |----|
口口口口 |②---|
口口口口 |----|
59
口口口口 |①---|
口口口口 |②---|
①②③口 |③---|
口口口口 |----|
60
口口口口 |①---|
①①②② |----|
口口口口 |②---|
口口口口 |----|
61
口口口口 |①---|
口口口口 |②---|
口③②① |③---|
口口口口 |----|
62
口口口口 |①---|
口口口口 |----|
②口口② |②---|
口①①口 |----|
63
②口口② |①---|
口①①口 |----|
口口口口 |②---|
口口口口 |----|
64
口口口口 |①---|
①口口① |----|
②口口② |②---|
口口口口 |----|
65
口口口口 |①---|
口②②口 |--②-|
口②②口 |----|
①口口① |----|
66
③口口口 |①---|
②④④口 |②---|
①口口口 |③---|
口口口口 |④---|
67
口口口③ |①---|
口④④② |②---|
口口口① |③---|
口口口口 |④---|
68
①③口口 |①---|
②④口口 |②---|
口口口口 |③---|
口口口口 |④---|
69
口口①③ |①---|
口口②④ |②---|
口口口口 |③---|
口口口口 |④---|
70
口口口口 |①---|
④②②④ |②---|
口③①口 |③---|
口口口口 |④---|
71
口口口口 |①---|
口口口口 |②---|
口③①口 |③---|
④②②④ |④---|
72
口口口口 |①---|
口②③口 |②---|
口④①口 |③---|
口口口口 |④---|
73
口②②口 |①---|
①②②① |--②-|
口口口口 |----|
口口口口 |----|
74
口口口口 |①---|
口口口口 |----|
①①①① |----|
口口口口 |----|

不確定度: 0

最終更新:2016年04月11日 03:48