勇敢な髑髏
新井大樹
ADVANCED
Level: 6
BPM: 160
Notes: 481
1
②口口① |----|
口口口口 |----|
口口口口 |----|
口口口口 |①-②-|
2
口口口口 |①---|
口①①口 |----|
口口口口 |----|
口口口口 |----|
3
口口口② |①---|
口口口口 |--②-|
口口口口 |----|
①口口③ |③---|
4
①口口口 |①---|
口口口口 |--②-|
口口口口 |----|
②口口③ |③---|
5
口口口口 |①---|
口③②口 |②---|
口①④口 |③---|
口口口口 |④---|
6
口口口口 |①-②-|
口③③口 |③---|
①口口② |----|
口口口口 |----|
7
口口口口 |①---|
口口口口 |----|
口①①口
口口口口
口口口口
口口口口
口口③口 |②---|
口②口口 |③---|
8
口口口口 |①---|
①①口口 |----|
口口口口 |----|
口口口口 |----|
9
口口口口 |①---|
口口口口 |----|
口口①① |----|
口口口口 |----|
10
口口口口 |①---|
口口口口 |----|
口口口口 |----|
①口口① |----|
11
口口口口 |①---|
口口口口 |----|
口①②口 |②---|
口②①口 |----|
12
口口口口 |①---|
口①①口 |----|
口口口口 |----|
口口口口 |----|
13
①口口① |①---|
口口口口 |----|
口口口口 |----|
口口口口 |----|
14
口口口口 |①---|
口口口口 |----|
口①①口 |----|
口口口口 |----|
15
②②②② |①---|
口口③口 |--②-|
口口③口 |----|
①口口① |③---|
16
口口口口 |①---|
口①口口 |----|
口①口口 |----|
口口口口 |----|
17
口口口口 |①---|
口口口口 |----|
口口口口 |----|
①②③① |②-③-|
18
口口口⑥ |①-②-|
口③②口 |③-④-|
口①④口 |⑤-⑥-|
⑤口口口 |----|
19
口口口⑥ |①-②-|
口③②口 |③-④-|
口①④口 |⑤-⑥-|
⑤口口口 |----|
20
口口口口 |①---|
①①③③ |②---|
口口口口 |③---|
④口口② |④---|
21
①①②② |①---|
口口口口 |②---|
口④④口 |③---|
口③③口 |④---|
22
②口口① |①---|
口口口口 |②---|
口④③口 |③-④-|
口⑥⑤口 |⑤-⑥-|
23
口⑤⑤口 |①-②-|
④口口③ |③-④-|
②口口① |⑤---|
口⑥⑥口 |⑥---|
24
口口口口 |①---|
②②①① |②---|
口口口口 |③-④-|
⑥④③⑤ |⑤-⑥-|
25
③③③③ |①--②|
②口口① |--③-|
②④④① |----|
口口口口 |④---|
26
口口口口 |①---|
①①①① |②---|
口口口口 |----|
口③②口 |③---|
27
口②口② |①---|
口口口口 |--②-|
口口口口 |----|
①③①③ |③---|
28
①口①口 |①---|
口口口口 |--②-|
口口口口 |----|
②③②③ |③---|
29
口口口口 |①---|
口③②口 |②---|
口①④口 |③---|
口口口口 |④---|
30
口口口口 |①-②-|
口③③口 |③---|
①口口② |----|
口④口口 |④---|
31
口口口口 |①---|
①口口① |②---|
口口④口 |③---|
口③口② |④---|
32
口口口口 |①---|
①①口口 |②---|
口口口口 |----|
③口口② |③---|
33
口口口口 |①---|
口口口口 |②---|
口口①① |----|
③口口② |③---|
34
口口口口 |①---|
口口口口 |②---|
①口口① |----|
③口口② |③---|
35
口口口口 |①---|
口①③口 |②---|
口③①口 |③---|
④口口② |④---|
36
口口口口 |①---|
①口口① |②---|
口口口口 |----|
③口口② |③---|
37
①①①① |①---|
口口口口 |②---|
口口口口 |----|
③口口② |③---|
38
口口口口 |①---|
口①①口 |②---|
口口口口 |----|
③口口② |③---|
39
②口口② |①---|
口②②口 |--②-|
③口口③ |----|
口①①口 |③---|
40
口口口口 |①---|
口口口口 |②---|
口①口口 |----|
③口①② |③---|
41
口口口口 |①---|
口①①口 |----|
口①①口 |----|
口②③口 |②-③-|
42
口口⑥⑥ |①-②-|
口③②口 |③-④-|
口①④口 |⑤-⑥-|
⑤⑤口口 |----|
43
口口⑥口 |①-②-|
口③②⑥ |③-④-|
⑤①④口 |⑤-⑥-|
口⑤口口 |----|
44
②口口⑤ |①-②-|
口①④口 |③---|
口口口口 |④-⑤-|
⑥口口③ |⑥---|
45
②口口④ |①-②-|
口①③口 |③-④-|
口⑥⑥口 |⑤---|
口⑤⑤口 |⑥---|
46
口②①口 |①---|
②口口① |②---|
口④口③ |③-④-|
口⑥口⑤ |⑤-⑥-|
47
口⑤⑤口 |①-②-|
④口③口 |③-④-|
②口①口 |⑤---|
口⑥⑥口 |⑥---|
48
口口口口 |①---|
口②①口 |②---|
②④③① |③-④-|
口⑥⑤口 |⑤-⑥-|
49
③③③③ |①--②|
②④④① |--③-|
②④④① |----|
口口口口 |④---|
50
④口④④ |①---|
③口口③ |②---|
②口口② |③---|
①口口① |④---|
51
口④④口 |①---|
③③口③ |②---|
②口口② |③---|
①口①① |④---|
52
②口口③ |①---|
口④①口 |②---|
口①④口 |③---|
③口口② |④---|
53
口口口口 |①---|
②口①③ |②---|
③①口② |③---|
口④④口 |④---|
54
④④口④ |①---|
③口口③ |②---|
②口口② |③---|
①口口① |④---|
55
口④④口 |①---|
③口③③ |②---|
②口口② |③---|
①①口① |④---|
56
③口口② |①---|
口①④口 |②---|
口④①口 |③---|
②口口③ |④---|
57
口①②② |①---|
口①口口 |②---|
口口①口
②②①口
口口口口
③口口③
③④④③ |③---|
口口口口 |④---|
58
④口④④ |①---|
③口口③ |②---|
②口口② |③---|
①①①① |④---|
59
④口④④ |①---|
③③口③ |②---|
②口口② |③---|
①口①① |④---|
60
口②③口 |①---|
口④①口 |②---|
口①④口 |③---|
口③②口 |④---|
61
②口口① |①---|
口口③③ |②---|
③③口口 |③---|
①④④② |④---|
62
④④口④ |①---|
③口口③ |②---|
②口口② |③---|
①口口① |④---|
63
④④口④ |①---|
③口③③ |②---|
②口口② |③---|
①①口① |④---|
64
口口口口 |①--②|
口①⑥口 |--③-|
口⑤②口 |--④-|
口口④③ |⑤-⑥-|
65
③③③③ |①--②|
①口口② |--③-|
①口口② |----|
口④⑤口 |④-⑤-|
66
口口⑥⑥ |①-②-|
口③②口 |③-④-|
口①④口 |⑤-⑥-|
⑤⑤口口 |----|
67
口口⑥口 |①-②-|
口③②⑥ |③-④-|
⑤①④口 |⑤-⑥-|
口⑤口口 |----|
68
口口口口 |①-②-|
②口口⑤ |③---|
口①④口 |④-⑤-|
⑥口口③ |⑥---|
69
②⑥⑧④ |①-②-|
⑤①③⑦ |③-④-|
口口口口 |⑤-⑥-|
口口口口 |⑦-⑧-|
70
②口口② |①---|
口口口口 |②---|
口①①口
口口口口
口口口口
口④口③
口⑥口⑤ |③-④-|
口口口口 |⑤-⑥-|
71
⑥口口⑦ |①-②-|
口⑧⑤口 |③-④-|
④口③口 |⑤-⑥-|
②口①口 |⑦-⑧-|
72
口⑤④③ |①---|
②口口② |②---|
口口口口 |③-④-|
口①①口 |⑤---|
73
③④④③ |①--②|
②③③② |--③-|
①②②① |----|
口①①口 |④---|
74
口口口口 |①---|
口口口口 |----|
口①①口 |----|
口①①口 |----|
不確定度: 0