勇敢な髑髏
新井大樹

EXTREME

Level: 10
BPM: 160
Notes: 850

1
口口口口 |----|
①口口口 |----|
口②口④ |----|
口口③口 |①②③④|
2
②口口③ |①--②|
口口①口 |--③-|
口口口口 |-④--|
⑤口⑥④ |⑤-⑥-|
3
④口③② |①--②|
口口口③ |--③-|
①⑤口口 |-④--|
⑤①⑥口 |⑤-⑥-|
4
③口口② |①--②|
③口①口 |--③-|
口口口①
口口口口

口口口口
口口口口
口口口⑤ |-④--|
④⑥口⑤ |⑤-⑥-|
5
②③②③ |①---|
口口口口 |②---|
①④①④ |③---|
口口口口 |④---|
6
⑥口①口 |①②③④|
口②口口 |⑤-⑥-|
③口⑤口
口④口口

口口⑨口
口⑩口口
口口口口 |-⑦--|
⑦口口⑧ |⑧-⑨⑩|
7
②口口口 |①--②|
口⑤口口 |--③-|
④口①⑤ |④---|
③口④口 |⑤---|
8
②口①③ |①--②|
①口⑦口 |--③-|
口口口⑥ |-④--|
⑤口口④ |⑤-⑥⑦|
9
③口口② |①--②|
口口口口 |--③-|
口①口口 |-④--|
④⑥口⑤ |⑤-⑥-|
10
③口口② |①--②|
①口口口 |--③-|
口①口口 |-④--|
④⑥①⑤ |⑤-⑥-|
11
③口口② |①--②|
口④口① |--③-|
④①①口 |④---|
口⑥④⑤ |⑤-⑥-|
12
②口①③ |①--②|
口口口① |--③-|
口①口口 |-④--|
⑤口⑥④ |⑤-⑥-|
13
③①①② |①--②|
①口口① |--③-|
口口口口 |-④--|
④⑥口⑤ |⑤-⑥-|
14
②口口③ |①--②|
口口口① |--③-|
①口①口 |-④--|
⑤口⑥④ |⑤-⑥-|
15
②口③口 |①--②|
③③口① |--③-|
口①口①
口口口口

口⑤口口
口口⑤⑤
口口口口 |-④--|
口⑥口④ |⑤-⑥-|
16
②口口③ |①--②|
口口口口 |--③-|
口①①口
①口口口

口口口口
口口口⑥
口口⑦口 |-④--|
⑤口口④ |⑤-⑥⑦|
17
②口口③ |①--②|
口口口口 |--③-|
⑤⑥⑦⑧ |-④--|
口①①④ |⑤⑥⑦⑧|
18
口①②③ |①-②-|
⑤②①⑥ |③-④-|
⑧口⑦⑨ |⑤-⑥⑦|
⑧口④⑨ |-⑧-⑨|
19
③②①口 |①-②-|
⑦①②⑤ |③-④-|
⑥口口口 |⑤-⑥⑦|
口④口口 |----|
20
口②⑦口 |①-②③|
口③⑧口 |④-⑤-|
⑩④⑨⑤ |⑥-⑦⑧|
⑥口口① |⑨-⑩-|
21
口②口口 |①-②③|
⑧③口⑦ |④-⑤-|
口④口⑤ |⑥---|
⑥⑧⑦① |⑦-⑧-|
22
②口口③ |①---|
④①口口 |②---|
口口②⑤ |③-④-|
⑥口口① |⑤-⑥-|
23
④⑥口口 |①-②-|
⑦⑤⑤③ |③-④-|
②口口口 |⑤---|
口口口① |⑥-⑦-|
24
口口②② |①---|
口口口口 |②---|
口①口口
口口口口

口口口口
口口口口
③⑦⑧④ |③④⑤⑥|
⑤⑧⑦⑥ |⑦-⑧-|
25
②③③① |①--②|
②②①① |--③-|
③口口③
口口口口

口口口口
口口口④
口⑦⑤口 |----|
口⑥口口 |④⑤⑥⑦|
26
②口口口 |①--②|
①口①口 |③---|
口口口口
①口①③

口口④⑤
口④口口
口口口口 |④--⑤|
⑥口口口 |⑥---|
27
②⑤④⑥ |①--②|
④口⑤④ |③-④-|
口⑦⑦① |⑤--⑥|
⑦口①③ |⑦---|
28
②口口口 |①--②|
口①④口 |③-④-|
④口口①
口④①③

口口⑤⑥
口口口⑤
口⑦口口 |⑤--⑥|
⑦口⑦口 |⑦---|
29
①③⑤⑤ |①-②-|
①③口口 |③-④-|
⑥口口② |⑤-⑥-|
⑧⑦⑦④ |⑦-⑧-|
30
口口口⑤ |①②③④|
口口④① |⑤---|
口③②口
口口口口

⑦⑨口口
口口⑩口
⑥口口⑥ |⑥--⑦|
口口口⑧ |⑧-⑨⑩|
31
口口口② |①--②|
口口口口 |③---|
口①口口
③口口口

口口口口
口口口⑤
④⑤⑤口 |④---|
口④④口 |⑤---|
32
⑤①①② |①--②|
①⑧口口 |③---|
⑦口口口 |④--⑤|
③④④⑥ |⑥-⑦⑧|
33
⑤口口② |①--②|
口口口口 |③---|
口①①口 |④--⑤|
③④④⑥ |⑥---|
34
⑦口口⑥ |①---|
⑤口①④ |②-③-|
③①口② |④-⑤-|
①口口口 |⑥-⑦-|
35
⑥口口⑦ |①---|
④①口⑤ |②-③-|
②④①③ |④-⑤-|
口口④① |⑥-⑦-|
36
⑦口①⑥ |①---|
⑤①口④ |②-③-|
③口①② |④-⑤-|
口口口口 |⑥-⑦-|
37
口①④口 |①---|
③口①② |②---|
②①口③ |③---|
口④①口 |④---|
38
⑦口口⑥ |①---|
⑤口口④ |②-③-|
③①口② |④-⑤-|
①口①口 |⑥-⑦-|
39
⑥⑦④⑤ |①-②-|
⑦④⑦④ |③-④-|
④口①⑦ |⑤-⑥-|
③①口② |⑦---|
40
口口口口 |①---|
口口口口 |②-③-|
口①①口
②①①③

口口口口
⑥口口⑦
④口⑧⑤ |④-⑤-|
口口口口 |⑥-⑦⑧|
41
口④④口 |①--②|
⑤②③⑥ |--③-|
⑦口口⑧ |④---|
③①①② |⑤⑥⑦⑧|
42
②⑤⑥③ |①-②-|
⑧⑤④⑦ |③-④-|
⑧④①口 |⑤-⑥⑦|
③①⑨① |-⑧-⑨|
43
③⑦⑤② |①-②-|
⑥④⑤口 |③-④-|
口口④口 |⑤-⑥⑦|
①口口③ |----|
44
⑩口口⑤ |①-②③|
⑥②⑦① |④-⑤-|
①③⑧⑥ |⑥-⑦⑧|
⑥④⑨① |⑨-⑩-|
45
口②①⑤ |①-②③|
口③口① |④-⑤-|
①④口口
口①口口

口口⑦口
⑧口口口
⑦口口⑥ |⑥---|
口口⑧口 |⑦-⑧-|
46
口②③② |①---|
④②①② |②---|
口口口⑤ |③-④-|
①⑥口口 |⑤-⑥-|
47
口口口③ |①-②-|
口①④口 |③-④-|
口③②口
口口口①

口口⑥口
⑤⑦口⑥
口口⑦口 |⑤---|
口口⑤口 |⑥-⑦-|
48
口口口② |①---|
②口口口 |②---|
①口口②
②①口①

口③口口
口⑤④口
口⑦⑥口 |③④⑤⑥|
口⑧⑧口 |⑦-⑧-|
49
①③③② |①--②|
①③③② |--③-|
③口口③
②口口①

⑧口口口
口口口口
口④⑤口 |④⑤⑥⑦|
口⑥⑦⑧ |⑧---|
50
⑦③②④ |①-②-|
①⑤④② |③-④-|
⑦③⑧⑥ |⑤-⑥-|
①⑤⑥⑧ |⑦-⑧-|
51
⑧③②④ |①-②-|
①⑥⑤② |③-④⑤|
⑧③⑨⑦ |⑥-⑦-|
①口⑦⑨ |⑧-⑨-|
52
口③①③ |①-②-|
①口④② |③-④-|
口③口口
①口口口

⑦口口口
口⑤口⑧
⑦口口⑤ |⑤-⑥-|
口⑤⑦⑥ |⑦-⑧-|
53
⑥④②③ |①-②-|
①⑤③口 |③-④-|
⑤③①⑤ |⑤---|
①口⑤⑥ |⑥---|
54
⑦③②④ |①-②-|
①⑤④② |③-④-|
⑦③⑧⑥ |⑤-⑥-|
①⑤⑥⑧ |⑦-⑧-|
55
⑧③②④ |①-②-|
①⑥⑤② |③-④⑤|
⑧③⑨⑦ |⑥-⑦-|
①口⑦⑨ |⑧-⑨-|
56
口③①③ |①-②-|
①口④② |③-④-|
口③口口
①口口口

⑦口口口
口⑤口⑧
⑦口口⑤ |⑤-⑥-|
口⑤⑦⑥ |⑦-⑧-|
57
口①②口 |①---|
①②口口 |②---|
口①②口
①②口口

口口口③
口口③口
口口口③ |③---|
④口③口 |④---|
58
④②③⑦ |①-②-|
②④⑤① |③-④-|
⑥⑧③⑦ |⑤-⑥-|
⑧⑥⑤① |⑦-⑧-|
59
④②③⑧ |①-②-|
②⑤⑥① |③-④⑤|
⑦⑨③⑧ |⑥-⑦-|
⑨⑦口① |⑧-⑨-|
60
③①③口 |①-②-|
②④口① |③-④-|
口口③口
口口口①

口口口⑦
⑧口⑤口
⑤口口⑦ |⑤-⑥-|
⑥⑦⑤口 |⑦-⑧-|
61
③②④⑤ |①-②-|
口③⑤① |③-④-|
口①③⑤ |⑤---|
口⑥⑦① |⑥-⑦-|
62
②⑥②⑥ |①-②-|
⑦口口③ |③-④-|
①⑤①⑤ |⑤-⑥-|
④口口⑧ |⑦-⑧-|
63
②⑦②⑦ |①-②-|
⑧口口③ |③-④⑤|
①口①口 |⑥-⑦-|
④⑤⑥⑨ |⑧-⑨-|
64
①口①④ |①--②|
口②④② |--③-|
③⑤②③ |--④-|
⑤③⑦⑥ |⑤-⑥⑦|
65
口③②口 |①--②|
①①③② |--③-|
③口①②
口③口口

口口口口
④口口⑦
口⑤⑥口 |----|
口口口口 |④⑤⑥⑦|
66
⑤③①⑥ |①-②-|
⑨⑦⑦⑧ |③-④-|
口口口⑥ |⑤-⑥⑦|
⑧④②⑨ |-⑧-⑨|
67
⑥①③⑤ |①-②-|
口⑦口⑦ |③-④-|
⑥口口口 |⑤-⑥⑦|
口②④口 |----|
68
⑤⑩⑤⑩ |①-②③|
①⑦②⑥ |④-⑤-|
⑥⑧③① |⑥-⑦⑧|
①⑨④⑥ |⑨-⑩-|
69
⑤⑦②⑩ |①-②③|
①⑧③⑥ |④-⑤-|
⑥⑨④① |⑥-⑦⑧|
⑩⑥①⑤ |⑨-⑩-|
70
口口口口 |①---|
②口②② |②---|
口口口①
口口①口

③④⑤⑥
口口口口
③④⑤⑥ |③-④-|
口口口口 |⑤-⑥-|
71
口口口口 |①-②-|
④③②① |③-④-|
口口口口
④③②①

⑤⑧⑦⑥
口口口口
⑤⑥⑦⑧ |⑤-⑥⑦|
口口口⑨ |⑧-⑨-|
72
②口口口 |①---|
口口口② |②---|
②口口口
口①①口

口口③口
口④⑤口
口⑥⑦口 |③④⑤⑥|
口⑧⑧口 |⑦-⑧-|
73
②③③① |①--②|
②口口① |--③-|
③口口③
①口口②

口口口口
口口口口
口口口口 |----|
④④④口 |④---|
74
口口口口 |①---|
①①①① |----|
口①①口 |----|
口口口口 |----|

不確定度: 0

最終更新:2016年04月11日 03:47