月に叢雲華に風
幽閉サテライト feat. senya

BASIC

Level: 3
BPM: 160
Notes: 276

1
口口口口 |----|
口口口口 |----|
口口口口 |----|
口口口口 |----|
2
口口口口 |①---|
口口口口 |----|
口口口口 |----|
①口口口 |----|
3
口口口口 |①---|
口口口口 |----|
口口口口 |----|
口口①口 |----|
4
口口口口 |①---|
口口口口 |----|
口①口口 |----|
口口口口 |----|
5
口口口口 |①---|
口口口口 |----|
口口口① |----|
口口口口 |----|
6
口口口口 |①---|
①口口口 |----|
口口口口 |----|
口口口口 |----|
7
口口口口 |①---|
口口①口 |----|
口口口口 |----|
口口口口 |----|
8
口①口口 |①---|
口口口口 |----|
口口口口 |----|
口口口口 |----|
9
口口口口 |----|
口口口口 |----|
口口口口 |----|
口口口口 |----|
10
口口口口 |①---|
口②①口 |②---|
口④③口 |③---|
口口口口 |④---|
11
口口口口 |①---|
口口口口 |----|
口口口口 |----|
口口①口 |----|
12
口口口口 |①---|
口③④口 |②---|
口①②口 |③---|
口口口口 |④---|
13
口①口口 |①---|
口口口口 |----|
口口口口 |----|
口口口口 |----|
14
口口口口 |①---|
④③②① |②---|
口口口口 |③---|
口口口口 |④---|
15
口口口口 |①---|
口口口口 |----|
口口口① |----|
口口口口 |----|
16
口口口口 |①---|
口口口口 |②---|
①②③④ |③---|
口口口口 |④---|
17
口口口口 |①---|
①口口口 |----|
口口口口 |----|
口口口口 |----|
18
口口口口 |①---|
口口口口 |----|
口①①口 |----|
口口口口 |----|
19
口口口口 |①---|
口口①口 |----|
口口口口 |----|
口口口口 |----|
20
口口口口 |①---|
口①口口 |----|
口口口口 |----|
口口口口 |----|
21
口口口口 |①---|
口口口口 |----|
口口①口 |----|
口口口口 |----|
22
口口口口 |①---|
口口口口 |----|
口①口口 |----|
口口口口 |----|
23
口口口口 |①---|
口口口口 |----|
口口口口 |----|
口口①口 |----|
24
口口口口 |①---|
口口口口 |----|
口口口口 |----|
口①口口 |----|
25
口口口口 |----|
口口口口 |----|
口口口口 |----|
口口口口 |----|
26
④口口口 |①---|
③口口口 |②---|
②口口口 |③---|
口①①口 |④---|
27
口①②③ |①---|
口口口④ |②---|
口口口口 |③---|
口口口口 |④---|
28
口口口口 |①---|
口口口口 |②---|
口口口① |③---|
口④③② |④---|
29
口口口口 |①---|
③口口口 |②---|
②口口口 |③---|
①口口口 |----|
30
口口口口 |①---|
口②①口 |②---|
口④③口 |③---|
口口口口 |④---|
31
口口口口 |①---|
口②①口 |②---|
口④③口 |③---|
口口口口 |④---|
32
口口口口 |①---|
①口口① |----|
口口口口 |----|
口口口口 |----|
33
口口口口 |①---|
口口口口 |----|
①口口① |----|
口口口口 |----|
34
口口口口 |①---|
口④③口 |--②-|
②口②口 |----|
①口①口 |③-④-|
35
①口口① |----|
口口口口 |--①-|
口口口口 |----|
口口口口 |----|
36
口口口口 |①---|
口③④口 |--②-|
口②口② |----|
口①口① |③-④-|
37
①口口① |----|
口口口口 |--①-|
口口口口 |----|
口口口口 |----|
38
口口口口 |①---|
口④③口 |--②-|
②口②口 |----|
①口①口 |③-④-|
39
①口口① |----|
口口口口 |--①-|
口口口口 |----|
口口口口 |----|
40
口口口口 |①---|
口④③口 |②---|
口②①口 |③---|
口口口口 |④---|
41
①口口① |①---|
口口口口 |----|
口口口口 |----|
口口口口 |----|
42
口口口口 |①---|
口①①口 |----|
口①①口 |②---|
②口口③ |③---|
43
口②④口 |①---|
口口口口 |②---|
口①③口 |③---|
口口口口 |④---|
44
①口口① |①---|
②口口② |②---|
③口口③ |③---|
④口口④ |④---|
45
口④②口 |①---|
口口口口 |②---|
口③①口 |③---|
口口口口 |④---|
46
①口口① |①---|
②口口② |②---|
③口口③ |③---|
④口口④ |④---|
47
口口口口 |①---|
口口口口 |②---|
口③④口 |③---|
口①②口 |④---|
48
口③④口 |①---|
口①②口 |②---|
口口口口 |③---|
口口口口 |④---|
49
口口口口 |①---|
口①①口 |----|
②②②② |----|
口口口口 |--②-|
50
口口口口 |----|
口口口口 |----|
口口口口 |①---|
①①①① |----|
51
口②④口 |①---|
口口口口 |②---|
口①③口 |③---|
口口口口 |④---|
52
①口口① |①---|
②口口② |②---|
③口口③ |③---|
④口口④ |④---|
53
口④②口 |①---|
口口口口 |②---|
口③①口 |③---|
口口口口 |④---|
54
①口口① |①---|
②口口② |②---|
③口口③ |③---|
④口口④ |④---|
55
口口口口 |①---|
口口口口 |②---|
口③④口 |③---|
口①②口 |④---|
56
口③④口 |①---|
口①②口 |②---|
口口口口 |③---|
口口口口 |④---|
57
口口口口 |①---|
口①①口 |----|
口口口口 |----|
口口口口 |----|
58
口口口口 |----|
口①②口 |----|
口②①口 |①---|
口口口口 |②---|
59
①②③④ |①---|
口口口口 |②---|
口口口口 |③---|
口口口口 |④---|
60
口口口口 |①---|
①口①口 |②---|
②口②口 |③---|
③④③④ |④---|
61
口口口口 |①---|
口口口口 |②---|
①②③④ |③---|
口口口口 |④---|
62
②③②③ |①---|
①④①④ |②---|
口口口口 |③---|
口口口口 |④---|
63
口④口口 |①---|
口口③口 |②---|
口②口口 |③---|
口口①口 |④---|
64
口口①① |①---|
③口口④ |②---|
口口②② |③---|
口口口口 |④---|
65
口口口口 |①---|
口①①口 |----|
②②②② |----|
口口口口 |--②-|
66
口口口口 |----|
口口口口 |----|
口口口口 |①---|
①①①① |----|
67
④③②① |①---|
口口口口 |②---|
口口口口 |③---|
口口口口 |④---|
68
口口口口 |①---|
口①口① |②---|
口②口② |③---|
④③④③ |④---|
69
口口口口 |①---|
口口口口 |②---|
④③②① |③---|
口口口口 |④---|
70
③②③② |①---|
④①④① |②---|
口口口口 |③---|
口口口口 |④---|
71
口口④口 |①---|
口③口口 |②---|
口口②口 |③---|
口①口口 |④---|
72
①①口口 |①---|
④口口③ |②---|
②②口口 |③---|
口口口口 |④---|
73
口口口口 |①---|
口口口口 |②---|
口口口口 |③---|
④③②① |④---|
74
口①①口 |①---|
口②②口 |②---|
口③③口 |③---|
口④④口 |④---|
75
口口口① |①---|
口口口口 |----|
口口口口 |----|
口口口口 |----|
76
口①口口 |①---|
口口口口 |----|
口口口口 |----|
口口口口 |----|
77
口口口口 |①---|
口口①口 |----|
口口口口 |----|
口口口口 |----|
78
口口口口 |①---|
①口口口 |----|
口口口口 |----|
口口口口 |----|
79
口口口口 |①---|
口口口口 |----|
口口口① |----|
口口口口 |----|
80
口口口口 |①---|
口口口口 |----|
口①口口 |----|
口口口口 |----|
81
口口口口 |①---|
口口口口 |----|
口口口口 |----|
口口①口 |----|

不確定度: 0

最終更新:2016年07月27日 16:52