月に叢雲華に風
幽閉サテライト feat. senya

ADVANCED

Level: 7
BPM: 160
Notes: 414

1
口口口口 |----|
口口口口 |----|
口②①口 |①---|
口口口口 |②---|
2
②口口③ |①---|
口口①口 |----|
口口口口 |②---|
口口口口 |③---|
3
口口口口 |①--②|
口①①口 |--③-|
口②②口 |----|
口③③口 |----|
4
口口口口 |①---|
②③④口 |----|
①口口① |②--③|
口口口口 |--④-|
5
①②③口 |①--②|
口口口口 |--③-|
口④口口 |----|
口口口口 |④---|
6
口④③口 |①---|
②口⑤② |--②-|
口口①口 |--③-|
口口口口 |④-⑤-|
7
口口口口 |①-②-|
口①口口 |③---|
口③②口
口口口口

口口口口
④⑤⑥口
口口口口 |--④-|
口口口口 |⑤-⑥-|
8
口口口口 |①---|
口口口① |----|
口口口口 |----|
口口口口 |----|
9
口口口口 |----|
口口口口 |----|
口口口口 |----|
口口口口 |----|
10
口口口口 |①---|
口口口口 |②---|
③口口④ |③---|
①口口② |④---|
11
口口口口 |①---|
①①口口 |----|
口口口口 |----|
口口口口 |----|
12
口口口口 |①---|
口口口口 |②---|
④口口③ |③---|
②口口① |④---|
13
口口口口 |①---|
口口①① |----|
口③③口 |②---|
口②②口 |③---|
14
②口口② |①---|
口①①口 |----|
口口口口 |②---|
口口口口 |----|
15
口口口口 |①---|
口②①口 |②---|
口④③口 |③---|
口口口口 |④---|
16
③口口③ |①---|
①口口① |--②-|
②口口② |----|
口口口口 |③---|
17
口口口口 |--①-|
口口口口 |----|
口②②口 |②---|
①口口① |----|
18
口口口口 |①---|
口口②① |----|
口口口口 |②---|
口口口口 |----|
19
口口口口 |①---|
口①口口 |----|
口口口③ |----|
口口口② |②-③-|
20
口口口口 |①---|
口口口① |②-③-|
口②③口 |----|
④口口口 |④---|
21
②③口口 |①---|
①口口口 |----|
口口口口 |----|
口口口口 |②-③-|
22
口口①口 |①---|
口②③口 |--②-|
口③②口 |----|
口口口口 |③---|
23
①口口② |①---|
口口口口 |②---|
口口口口 |③---|
③口口④ |④---|
24
口口口口 |①---|
口口口口 |----|
口①①口 |----|
口口口口 |----|
25
口口口口 |----|
口口口口 |----|
口口口口 |----|
口口口口 |----|
26
口②①口 |①---|
②口口① |----|
口口口口 |②---|
口口口口 |----|
27
口口口口 |①---|
口③③口 |----|
口①①口 |--②-|
口②②口 |--③-|
28
⑤⑥⑦口 |①-②-|
口口口口 |③-④-|
④③②① |⑤-⑥-|
口口口口 |⑦---|
29
口口口口 |①---|
①①口口 |②---|
口⑤②② |③---|
③③④口 |④-⑤-|
30
口②口③ |①-②-|
口口①④ |③-④-|
口口口口
口口口口

口⑥口口
口口口口
口口口⑤ |⑤---|
口口口口 |--⑥-|
31
口⑧①口 |①-②-|
口②⑦口 |③-④-|
口⑥③口 |⑤-⑥-|
口④⑤口 |⑦-⑧-|
32
口口①口 |①---|
口口口口 |----|
口口口口 |----|
口口口口 |----|
33
口口口口 |----|
口口口口 |----|
口口口口 |----|
口口口口 |----|
34
口口④③ |①---|
①②④③ |--②-|
口口口口 |----|
①②口口 |③-④-|
35
口口口口 |----|
口①口口 |--①-|
口口①口 |--②-|
④③②口 |③-④-|
36
③④口口 |①---|
③④②① |--②-|
口口口口 |----|
口口②① |③-④-|
37
口口口口 |----|
口口①口 |--①-|
口①口口 |--②-|
口②③④ |③-④-|
38
口口④③ |①---|
①②④③ |--②-|
口口口口 |----|
①②口口 |③-④-|
39
口口口口 |----|
口①口口 |--①-|
口口①口 |--②-|
④③②口 |③-④-|
40
口口口口 |①--②|
④⑤⑥口 |--③-|
口③②① |④--⑤|
口口口口 |--⑥-|
41
①口口① |①---|
口口口口 |----|
口口口口 |----|
口口口口 |----|
42
口口②口 |①---|
口①①② |----|
口①①③ |②---|
口口③口 |③---|
43
②口口② |①---|
口口口口 |----|
①③③口 |②---|
口①口口 |③---|
44
口口口口 |①--②|
口②③① |--③-|
口口口口 |----|
③①口② |----|
45
③④②口 |①---|
④①④口 |----|
③④②口 |②--③|
口口口口 |--④-|
46
口口口口 |①--②|
口③口③ |--③-|
口④④口 |----|
②①②① |④---|
47
②①①② |①---|
口②②口 |--②-|
口口口口 |--③-|
④口⑤③ |④-⑤-|
48
口口口口 |①-②-|
口③口口 |③---|
口口②口
口①口口

④⑤⑥口
口口口口
④⑤⑥口 |--④-|
口口口口 |⑤-⑥-|
49
口口口① |①---|
②口口② |----|
口口口① |----|
②口口② |--②-|
50
口⑤⑤口 |--①-|
口口③口 |②-③-|
口②①口 |④-⑤-|
口④④口 |----|
51
③口口③ |①---|
②②②② |----|
①①①① |②---|
口口口口 |③---|
52
口口口口 |①--②|
口③③口 |--③-|
口②②口 |----|
口①①口 |----|
53
口④④口 |①---|
口③③口 |----|
口②②口 |②--③|
①口口① |--④-|
54
①口口① |①--②|
②口④② |--③-|
③④口③ |----|
口口口口 |④---|
55
②口口② |①---|
口①口口 |--②-|
口口①口 |--③-|
③⑤口④ |④-⑤-|
56
口口口口 |①-②-|
口口③口 |③---|
口②口口
口口①口

口⑥⑤④
口口口口
口⑥⑤④ |--④-|
口口口口 |⑤-⑥-|
57
①口口口 |①---|
口口口口 |----|
①口口口 |----|
口口口口 |----|
58
口口①口 |----|
口口口① |----|
口口口② |①---|
口口②口 |②---|
59
②口口② |①---|
口口口口 |----|
①③③口 |②---|
口①口口 |③---|
60
口口口口 |①--②|
口②③① |--③-|
口口口口 |----|
③①口② |----|
61
③④②口 |①---|
④①④口 |----|
③④②口 |②--③|
口口口口 |--④-|
62
口口口口 |①--②|
口③口③ |--③-|
口④④口 |----|
②①②① |④---|
63
②①①② |①---|
口②②口 |--②-|
口口口口 |--③-|
④口⑤③ |④-⑤-|
64
口口口口 |①-②-|
口③口口 |③---|
口口②口
口①口口

④⑤⑥口
口口口口
④⑤⑥口 |--④-|
口口口口 |⑤-⑥-|
65
口口口① |①---|
②口口② |----|
口口口① |----|
②口口② |--②-|
66
口⑤⑤口 |--①-|
口口③口 |②-③-|
口②①口 |④-⑤-|
口④④口 |----|
67
①口口① |①---|
①口口① |----|
口口口口
口口口口

③口口③
口口口口
口口口口 |②---|
②口口② |③---|
68
口口口口 |①--②|
①口口② |--③-|
口③③口 |----|
口②①口 |----|
69
口口②② |①---|
口口③③ |----|
口口④④ |②--③|
①口口① |--④-|
70
①①口口 |①--②|
②②口口 |--③-|
③③口口 |----|
口④④口 |④---|
71
②①①② |①---|
口口口口 |--②-|
口口口口 |--③-|
③⑤口④ |④-⑤-|
72
口口口口 |①-②-|
口口③口 |③---|
口②口口
口口①口

口⑥⑤④
口口口口
口⑥⑤④ |--④-|
口口口口 |⑤-⑥-|
73
①口口口 |①---|
口口口口 |----|
①口口口 |----|
口口口口 |----|
74
口口口口 |----|
口口口口 |----|
口口口口 |----|
口口口口 |----|
75
口口①口 |①---|
口口口口 |----|
口口口口 |----|
口口口口 |----|
76
口①口口 |①---|
口口口口 |----|
口口口口 |----|
口口口口 |----|
77
口口口口 |①---|
口口①口 |----|
口口口口 |----|
口口口口 |----|
78
口口口口 |①---|
口①口口 |----|
口口口口 |----|
口口口口 |----|
79
口口口口 |①---|
口口口口 |----|
口口①口 |----|
口口口口 |----|
80
口口口口 |①---|
口口口口 |----|
口①口口 |----|
口口口口 |----|
81
口口口口 |①---|
口口口口 |----|
口口口口 |----|
口口①口 |----|

不確定度: 0

最終更新:2016年07月27日 16:52