月に叢雲華に風
幽閉サテライト feat. senya

EXTREME

Level: 9
BPM: 160
Notes: 617

1
口口口口 |----|
口口口口 |----|
②口口口 |①---|
①口口口 |②---|
2
口口口③ |①---|
①口口口 |----|
口口口口 |②---|
口口②口 |③---|
3
口口①口 |①--②|
口②口口 |--③-|
口口③口 |----|
口口口口 |----|
4
①口口口 |①---|
口口④口 |----|
口③口口 |②--③|
口口②口 |--④-|
5
①口口口 |①--②|
口口口② |--③-|
③口口口 |----|
口④口口 |④---|
6
口①②口 |①---|
口口口口 |--②-|
③口⑤口 |--③-|
口④口口 |④-⑤-|
7
口口口口 |①-②-|
口口口口 |③---|
口③口口
口口②①

口⑤口④
口口口口
口口口口 |--④-|
口口⑥口 |⑤-⑥-|
8
口口口口 |①---|
口口口口 |----|
口口口口 |----|
①口口口 |----|
9
口口口口 |----|
口③口口 |----|
口口②口 |--①-|
口①口口 |②-③-|
10
口④①③ |①---|
口⑤③① |②-③-|
口口口口 |----|
②口口口 |--④⑤|
11
⑤口口⑤ |①---|
口口口口 |②---|
口①口口 |③---|
口④③② |④-⑤-|
12
口⑤①口 |--①-|
口②口口 |②-③-|
口口③口 |④--⑤|
⑥④口⑥ |--⑥-|
13
口口口口 |----|
口②①口 |----|
口④③口 |①-②-|
口口口口 |③-④-|
14
口口①口 |①---|
②口口① |--②-|
口口口口 |③---|
口③④口 |④---|
15
④⑤⑥口 |①---|
口③③口 |②-③-|
口口口② |--④-|
口口口① |⑤-⑥-|
16
口口⑤③ |①---|
②口③⑤ |②-③-|
④①①口 |--④-|
口口口口 |⑤---|
17
口②口口 |①-②-|
②口口口 |--③-|
口口口① |④-⑤-|
⑥⑤④③ |⑥---|
18
口口口口 |①---|
口②①口 |----|
口口口口 |②---|
口口口口 |----|
19
口口口口 |①---|
口口口口 |----|
口口①口 |----|
②口口③ |②-③-|
20
口口口口 |①---|
口口③口 |②-③-|
①④②口 |----|
口口口口 |④---|
21
口①口口 |①---|
②③口口 |----|
口口口口 |----|
口口口口 |②-③-|
22
口口口② |①---|
口口①口 |--②-|
口口口口 |----|
口口口③ |③---|
23
口口口口 |①---|
口④③口 |②---|
口②口口 |③---|
①口口口 |④---|
24
口口口口 |①---|
口口口口 |----|
口口①口 |----|
口口口口 |----|
25
口口口口 |----|
口口口口 |----|
口口口口 |----|
口口口口 |----|
26
⑦⑧口口 |①-②-|
⑤⑥口⑤ |③-④-|
③④口口 |⑤-⑥-|
①②口① |⑦-⑧-|
27
口口①口 |①---|
口口①口 |②-③-|
口口口口
口口③②

口口口口
口口⑦⑥
口口⑤④ |④-⑤-|
口口口口 |⑥-⑦-|
28
②口①① |①-②-|
③⑥⑦⑦ |③-④-|
口⑤口口 |⑤-⑥-|
口口④④ |⑦---|
29
②口口① |①---|
口⑤③口 |②---|
口③④口 |③---|
①口口② |④-⑤-|
30
口口口① |①-②-|
②口⑤口 |③-④-|
口⑤口③ |⑤---|
④口口⑥ |--⑥-|
31
⑤口口① |①-②-|
②口口⑥ |③-④-|
⑦口口③ |⑤-⑥-|
④口口⑧ |⑦-⑧-|
32
口口②③ |①---|
口口①口 |②-③-|
口①口口 |④-⑤-|
④⑤⑥⑦ |⑥-⑦-|
33
①②③④ |①-②-|
①⑥⑤口 |③-④-|
⑥口口⑤ |⑤---|
口口口口 |⑥---|
34
③口口④ |①---|
口④③口 |--②-|
③口口④ |----|
①②②① |③-④-|
35
口①①口 |----|
口③②口 |--①-|
口口④口 |--②-|
口口口口 |③-④-|
36
④口口③ |①---|
口③④口 |--②-|
④口口③ |----|
①②②① |③-④-|
37
口①①口 |----|
口②③口 |--①-|
口④口口 |--②-|
口口口口 |③-④-|
38
④口口③ |①---|
口③④口 |--②-|
④口口③ |----|
①②②① |③-④-|
39
口①①口 |----|
口③②口 |--①-|
口口④口 |--②-|
口口口口 |③-④-|
40
⑤④④口 |①--②|
③口口② |--③-|
②①⑤⑥ |④--⑤|
口⑥③① |--⑥-|
41
口口口口 |①---|
口②③口 |②-③-|
口④⑤口 |④-⑤-|
①⑥⑦① |⑥-⑦-|
42
③①口② |①---|
①口口口 |----|
口口口口 |②---|
②口口③ |③---|
43
口口①② |①---|
口口口① |②-③-|
①口口①
③①①口

⑤口⑦口
口口⑥口
口⑥④口 |④-⑤-|
口口口④ |⑥-⑦-|
44
③口口② |①--②|
口①口① |--③-|
②口③口
口②①③

口口⑦口
口⑥口口
口口口⑤ |④-⑤-|
④口口口 |⑥-⑦-|
45
⑤①⑤③ |①---|
①④①口 |②-③-|
⑤①⑤口 |④--⑤|
⑥口⑥② |--⑥-|
46
口②⑤④ |①--②|
②③②① |--③-|
⑦③口③ |④-⑤-|
⑥①⑥① |⑥-⑦-|
47
①④③口 |①---|
③⑥⑤口 |②-③-|
口②口③ |--④-|
口③口① |⑤-⑥-|
48
口口③口 |①-②-|
⑤⑦口③ |③---|
口②①口 |④-⑤-|
②④⑥① |⑥-⑦-|
49
④⑦口口 |①-②-|
口口⑥⑤ |③-④-|
①口②① |⑤-⑥-|
③⑧⑧⑧ |⑦-⑧-|
50
②⑤④② |--①-|
③⑦⑥③ |②-③-|
①⑨⑧① |④⑤⑥⑦|
口⑪⑩口 |⑧⑨⑩⑪|
51
④口口① |①---|
口⑥⑥③ |②-③-|
④口口① |④-⑤-|
②⑦口⑤ |⑥-⑦-|
52
口②口① |①--②|
①口口② |--③-|
口②口①
③口③③

⑤口口⑦
口口口口
④口口⑥ |④-⑤-|
口口口口 |⑥-⑦-|
53
⑥④①⑥ |①---|
④口口① |②-③-|
口②③口 |④--⑤|
⑤口口⑤ |--⑥-|
54
口口②口 |①--②|
口②①③ |--③-|
②③口①
口①③口

口口口口
④口口口
口口⑦口 |④-⑤-|
⑥⑥口⑤ |⑥-⑦-|
55
①③③① |①---|
③口口③ |②-③-|
④口⑥口 |--④-|
口⑤②口 |⑤-⑥-|
56
②口口③ |①-②-|
口①①口 |③---|
口口口口
口口口口

口口口口
口⑦口口
⑥⑤口⑦ |④-⑤-|
④口⑥⑤ |⑥-⑦-|
57
⑤④③② |①---|
①口口⑥ |②-③-|
口口①口 |④-⑤-|
⑦口口口 |⑥-⑦-|
58
⑭⑩③⑪ |①②③④|
⑥②⑦⑮ |⑤⑥⑦⑧|
⑯⑧①⑤ |⑨⑩⑪⑫|
⑫④⑨⑬ |⑬⑭⑮⑯|
59
口口⑥④ |①---|
③①④⑥ |②-③-|
⑦口①口 |④-⑤-|
⑤口②口 |⑥-⑦-|
60
②③口④ |①-②③|
④①口口 |--④-|
口口①④
口口口口

口口⑦口
口口⑧口
口口⑨口 |--⑤⑥|
口⑥⑩⑤ |⑦⑧⑨⑩|
61
②①⑤⑧ |①-②-|
④⑤⑧口 |③-④-|
⑧①口③ |⑤-⑥⑦|
⑥⑦口口 |--⑧-|
62
②③口口 |①-②③|
④口口① |--④-|
口口④④
口口口①

口口口口
口口口⑥
⑦口口口 |--⑤-|
⑤口口⑥ |⑥-⑦-|
63
口口①③ |①---|
口③口口 |②-③-|
口②③口
③①口口

④⑥⑤口
口口口口
口口口口 |--④-|
口口口口 |⑤-⑥-|
64
口口口口 |①-②-|
⑤⑦①口 |③---|
口②③① |④-⑤-|
②④⑥③ |⑥-⑦-|
65
④⑦口口 |①-②-|
口口⑥⑤ |③-④-|
①口②① |⑤-⑥-|
③⑧⑧⑧ |⑦-⑧-|
66
②⑤④② |--①-|
③⑦⑥③ |②-③-|
①⑨⑧① |④⑤⑥⑦|
口⑪⑩口 |⑧⑨⑩⑪|
67
口口口① |①---|
③⑥⑥④ |②-③-|
⑦口④① |④-⑤-|
⑤口口② |⑥-⑦-|
68
②③口口 |①-②③|
④口⑥口 |--④-|
⑦④④口 |--⑤-|
⑤口①① |⑥-⑦-|
69
②口①口 |①-②-|
④口口① |③-④-|
口口口口
口口口③

口口口⑧
口⑤⑤⑧
⑧口口口 |⑤-⑥⑦|
⑥⑦口口 |--⑧-|
70
②③口口 |①-②③|
④口④⑥ |--④-|
⑦口①① |--⑤-|
⑤口口④ |⑥-⑦-|
71
口①③口 |①---|
③口⑥口 |②-③-|
口②①③ |--④-|
⑤③口④ |⑤-⑥-|
72
②⑦口③ |①-②-|
⑦①口口 |③---|
⑤口口⑥ |④-⑤-|
口⑤⑥④ |⑥-⑦-|
73
④口①口 |①-②-|
口口口① |③-④-|
口口口口
②口口③

口⑥口⑤
口口口⑦
口口口口 |⑤-⑥-|
⑧口口口 |⑦-⑧-|
74
⑭⑩③⑪ |①②③④|
⑥②⑦⑮ |⑤⑥⑦⑧|
⑯⑧①⑤ |⑨⑩⑪⑫|
⑫④⑨⑬ |⑬⑭⑮⑯|
75
口口①口 |①---|
口口口口 |----|
口口口口 |----|
口口口口 |----|
76
口①口口 |①---|
口口口口 |----|
口口口口 |----|
口口口口 |----|
77
口口口口 |①---|
口口①口 |----|
口口口口 |----|
口口口口 |----|
78
口口口口 |①---|
口①口口 |----|
口口口口 |----|
口口口口 |----|
79
口口口口 |①---|
口口口口 |----|
口口①口 |----|
口口口口 |----|
80
口口口口 |①---|
口口口口 |----|
口①口口 |----|
口口口口 |----|
81
口口口口 |①---|
口口口口 |----|
口口口口 |----|
口口①口 |----|

不確定度: 0

最終更新:2016年07月27日 16:52