Green Green Dance
Mutsuhiko Izumi

ADVANCED

Level: 8
BPM: 165
Notes: 672

1
口口口口 |----|
口口口口 |----|
口口口口 |----|
口口口口 |----|
2
口口口口 |①-②-|
③口口口 |③-④-|
口口口②
①口④口

口⑦口口
口口⑥口
口⑤口⑧ |⑤-⑥-|
口口口口 |⑦-⑧-|
3
口口口口 |①-②-|
口③口口 |③-④-|
口口②口
口①口④

⑦口口口
口口口⑥
⑤口⑧口 |⑤-⑥-|
口口口口 |⑦-⑧-|
4
口口口口 |①-②-|
③口口口 |③-④-|
口口口②
①口④口

口⑦口口
口口⑥口
口⑤口⑧ |⑤-⑥-|
口口口口 |⑦-⑧-|
5
⑤口口口 |①-②-|
口③口⑥ |③-④-|
⑦口②口 |⑤-⑥-|
口①④⑧ |⑦-⑧-|
6
口口口口 |①-②-|
③口口口 |③-④-|
口口口②
①口④口

口⑦口口
口口⑥口
口⑤口⑧ |⑤-⑥-|
口口口口 |⑦-⑧-|
7
⑦口口口 |①-②-|
口③口⑥ |③-④-|
⑤口②⑧ |⑤-⑥-|
口①口④ |⑦-⑧-|
8
口口口口 |①-②-|
口①①口 |③---|
口②②口
口③③口

④④⑤⑤
⑥⑥⑦⑦
口口口口 |④-⑤-|
口口口口 |⑥-⑦-|
9
③③③③ |①---|
口口口口 |②---|
①②②① |③---|
①②②① |----|
10
⑦③③⑦ |①-②-|
⑤①①⑤ |③---|
口⑥⑥口 |④-⑤-|
②④④② |⑥-⑦-|
11
⑥①①⑥ |--①-|
口②②口 |②-③-|
③⑤⑤③ |④-⑤-|
口④④口 |⑥---|
12
⑦③③⑦ |①-②-|
⑤①①⑤ |③---|
口⑥⑥口 |④-⑤-|
②④④② |⑥-⑦-|
13
口④④口 |--①-|
⑦①①⑦ |②-③-|
③⑥⑥③ |④-⑤-|
②⑤⑤② |⑥-⑦-|
14
⑦③③⑦ |①-②-|
⑤①①⑤ |③---|
口⑥⑥口 |④-⑤-|
②④④② |⑥-⑦-|
15
口①①口 |--①-|
⑥②②⑥ |②-③-|
③口口③ |④-⑤-|
⑤④④⑤ |⑥---|
16
口口口口 |①-②-|
口①①口 |③---|
口②②口
口③③口

④④⑤⑤
⑥⑥⑦⑦
口口口口 |④-⑤-|
口口口口 |⑥-⑦-|
17
③③③③ |①---|
口口口口 |②---|
①②②① |③---|
①②②① |----|
18
口口口口 |①---|
①口口① |----|
口②口口 |----|
口口口口 |--②-|
19
口口口口 |①---|
⑥口口口 |②-③-|
口口②⑤ |--④-|
④①③口 |⑤-⑥-|
20
口口口① |①---|
口口口④ |----|
③口口口 |--②-|
口口口② |③-④-|
21
口④④口 |①---|
口③③口 |②---|
口②②口 |③---|
口①①口 |④---|
22
①口口① |①---|
口口口口 |----|
口②口口 |----|
口口口口 |--②-|
23
口口口口 |①---|
⑥口口口 |②-③-|
口口②⑤ |--④-|
④①③口 |⑤-⑥-|
24
口口口① |①---|
口口口口 |----|
口口口口 |----|
口口口口 |----|
25
③③③③ |①---|
口口口口 |②---|
①口口② |③---|
①口口② |----|
26
⑦③③⑦ |①-②-|
⑤①①⑤ |③---|
口⑥⑥口 |④-⑤-|
②④④② |⑥-⑦-|
27
⑥①①⑥ |--①-|
口②②口 |②-③-|
③⑤⑤③ |④-⑤-|
口④④口 |⑥---|
28
⑦③③⑦ |①-②-|
⑤①①⑤ |③---|
口⑥⑥口 |④-⑤-|
②④④② |⑥-⑦-|
29
口④④口 |--①-|
⑦①①⑦ |②-③-|
③⑥⑥③ |④-⑤-|
②⑤⑤② |⑥-⑦-|
30
⑦③③⑦ |①-②-|
⑤①①⑤ |③---|
口⑥⑥口 |④-⑤-|
②④④② |⑥-⑦-|
31
口①①口 |--①-|
⑥②②⑥ |②-③-|
③口口③ |④-⑤-|
⑤④④⑤ |⑥---|
32
口口口口 |①-②-|
口①①口 |③---|
口②②口
口③③口

④④⑤⑤
⑥⑥⑦⑦
口口口口 |④-⑤-|
口口口口 |⑥-⑦-|
33
③③③③ |①---|
口口口口 |②---|
①②②① |③---|
①②②① |----|
34
口口口口 |①---|
①②③① |--②-|
①④⑤① |③-④-|
口⑥口口 |⑤-⑥-|
35
⑧口口① |①-②-|
⑦口口② |③-④-|
⑥口口③ |⑤-⑥-|
⑤口口④ |⑦-⑧-|
36
口①口口 |①-②-|
⑤口②⑥ |③-④-|
⑦③口⑧ |⑤-⑥-|
口口④口 |⑦-⑧-|
37
口①②口 |①-②-|
口口口口 |③-④-|
口③④口 |⑤-⑥-|
口⑤⑥⑦ |⑦---|
38
口口口口 |①---|
①②③① |--②-|
①④⑤① |③-④-|
口⑥口口 |⑤-⑥-|
39
⑧口口① |①-②-|
⑦口口② |③-④-|
⑥口口③ |⑤-⑥-|
⑤口口④ |⑦-⑧-|
40
口①①口 |①---|
口口口口 |②-③-|
口④④口 |④---|
⑤②③⑥ |⑤-⑥-|
41
③③③③ |①---|
口①①口 |②---|
口口口口 |③---|
口②②口 |----|
42
⑧④口口 |①-②-|
口口③⑦ |③-④-|
⑥②口口 |⑤-⑥-|
口口①⑤ |⑦-⑧-|
43
口口口③ |①-②-|
④①②⑤ |③---|
口口口口 |④-⑤-|
口⑥⑥口 |--⑥-|
44
口口口口 |--①-|
口①②口 |②---|
③④口口 |③-④-|
口口⑤⑥ |⑤-⑥-|
45
口口口口 |①-②-|
口口⑤口 |③-④-|
口⑥②① |--⑤-|
④③⑦口 |⑥-⑦-|
46
③④⑤⑥ |①-②-|
②口口⑦ |③-④-|
①口口⑧ |⑤-⑥-|
口口口口 |⑦-⑧-|
47
口口口口 |①-②-|
口①②口 |③-④-|
口③④口 |----|
口口口口 |----|
48
①口口⑤ |①-②-|
②口口⑥ |③-④-|
③口口⑦ |⑤-⑥-|
④口口⑧ |⑦-⑧-|
49
③③③③ |①---|
口①①口 |②---|
口口口口 |③---|
口②②口 |----|
50
口口④口 |①---②-|
口③⑤口 |--③---|
口②⑥口 |④---⑤-|
口①口口 |--⑥---|
51
①口口口 |①---②-|
口口口② |--③---|
③口口口 |④---⑤-|
⑤口口④ |----|
52
口口口口 |①---|
②口口② |----|
口①①口 |②---|
口口口口 |----|
53
口口口口 |①---|
口②②口 |----|
口口口口 |②---|
口①①口 |----|
54
口口口口 |①---②-|
③口口⑥ |--③---|
②口口⑤ |④---⑤-|
①口口④ |--⑥---|
55
口①口口 |①---②-|
口口②口 |--③---|
口③口口 |④---⑤-|
口⑤④口 |----|
56
口口口口 |①---|
口口口口 |----|
口②②口 |②---|
①口口① |----|
57
②②②② |①---|
①①①① |----|
口口口口 |②---|
口口口口 |----|
58
⑦③③⑦ |①-②-|
⑤①①⑤ |③---|
口⑥⑥口 |④-⑤-|
②④④② |⑥-⑦-|
59
⑥①①⑥ |--①-|
口②②口 |②-③-|
③⑤⑤③ |④-⑤-|
口④④口 |⑥---|
60
⑦③③⑦ |①-②-|
⑤①①⑤ |③---|
口⑥⑥口 |④-⑤-|
②④④② |⑥-⑦-|
61
口④④口 |--①-|
⑦①①⑦ |②-③-|
③⑥⑥③ |④-⑤-|
②⑤⑤② |⑥-⑦-|
62
⑦③③⑦ |①-②-|
⑤①①⑤ |③---|
口⑥⑥口 |④-⑤-|
②④④② |⑥-⑦-|
63
口①①口 |--①-|
⑥②②⑥ |②-③-|
③口口③ |④-⑤-|
⑤④④⑤ |⑥---|
64
口口口口 |①-②-|
口①①口 |③---|
口②②口
口③③口

④④⑤⑤
⑥⑥⑦⑦
口口口口 |④-⑤-|
口口口口 |⑥-⑦-|
65
③③③③ |①---|
④⑤⑥口 |②---|
①②②① |③-④-|
①②②① |⑤-⑥-|
66
口口口口 |①---|
口口口① |②---|
口口②口 |③-④-|
⑤③④口 |--⑤-|
67
口口口口 |①-②-|
口口口口 |③-④-|
④③②①
口口口口

口口口口
口口口口
口口⑦口 |--⑤-|
⑤⑥口口 |⑥-⑦-|
68
④⑧口口 |①-②-|
口口⑦③ |③-④-|
②⑥口口 |⑤-⑥-|
口口⑤① |⑦-⑧-|
69
④⑧口口 |①-②-|
口口⑦③ |③-④-|
②⑥口口 |⑤-⑥-|
口口⑤① |⑦-⑧-|
70
口口①② |----|
口③口口 |①---|
口口口口 |②---|
口口口口 |③---|
71
口口口口 |①-②-|
口口口口 |③-④-|
①⑦⑧② |⑤-⑥-|
③⑤⑥④ |⑦-⑧-|
72
⑤①②⑥ |①-②-|
⑦③④⑧ |③-④-|
口口口口 |⑤-⑥-|
口口口口 |⑦-⑧-|
73
③③③③ |①---|
口口口口 |②---|
口①①口 |③---|
②口口② |----|
74
③③③③ |①---|
口口口口 |②---|
②口口② |③---|
口①①口 |----|
75
③③③③ |①---|
②口口② |②---|
①②②① |③---|
口①①口 |----|


不确定度: 0

タグ:

+ タグ編集
  • タグ:

このサイトはreCAPTCHAによって保護されており、Googleの プライバシーポリシー利用規約 が適用されます。

最終更新:2012年11月10日 14:16