響縁
豚乙女

BASIC

Level: 2
BPM: 180
Notes: 234

1
口口口口 |----|
口口口口 |----|
口口口口 |----|
口口口口 |----|
2
口口口口 |①---|
口①①口 |----|
口①①口 |----|
口口口口 |----|
3
口口口口 |----|
口口口口 |----|
口口口口 |----|
口口口口 |----|
4
口口口口 |①---|
①口口① |----|
口口口口 |----|
口口口口 |----|
5
口口口口 |----|
口口口口 |----|
口口口口 |----|
口口口口 |----|
6
口口口口 |①---|
口口口口 |----|
口口口口 |----|
①口口① |----|
7
口口口口 |----|
口口口口 |----|
口口口口 |----|
口口口口 |----|
8
口口口口 |①---|
口口口口 |----|
口①①口 |----|
口口口口 |----|
9
口口口口 |----|
口口口口 |----|
口口口口 |----|
口口口口 |----|
10
口口口口 |①---|
口口口口 |----|
口②口口 |②---|
①口口口 |----|
11
口口口口 |①---|
口口口口 |----|
口口①口 |②---|
口口口② |----|
12
口口口口 |①---|
口口口口 |----|
口①②口 |②---|
口口口口 |----|
13
口口口口 |①---|
①口口② |----|
口口口口 |②---|
口口口口 |----|
14
口口口口 |①---|
口①口口 |----|
口口②口 |②---|
口口口口 |----|
15
口口口口 |①---|
口口口口 |----|
口口口口 |②---|
口①②口 |----|
16
口口口口 |①---|
口口②口 |----|
口①口口 |②---|
口口口口 |----|
17
口①口② |①---|
口口口口 |----|
口口口口 |②---|
口口口口 |----|
18
口口口口 |①---|
口口口口 |②---|
口口口口 |③---|
①②③④ |④---|
19
口口口口 |①---|
口口口口 |②---|
①②③④ |③---|
口口口口 |④---|
20
口口口口 |①---|
①②③④ |②---|
口口口口 |③---|
口口口口 |④---|
21
①口口口 |①---|
口口口口 |----|
口口口口 |----|
口口口口 |----|
22
口口口口 |①---|
口口口口 |②---|
口口口口 |③---|
④③②① |④---|
23
口口口口 |①---|
口口口口 |②---|
④③②① |③---|
口口口口 |④---|
24
口口口口 |①---|
口口①口 |----|
口口口口 |----|
口口口口 |----|
25
①口口① |①---|
口口口口 |----|
口口口口 |----|
口口口口 |----|
26
口口口口 |①---|
口口口口 |----|
口②口口 |②---|
口①口口 |----|
27
口③②口 |①---|
口①口口 |----|
口口口口 |②---|
口口口口 |③---|
28
口口口① |①---|
口口口② |----|
口口口口 |②---|
口口口口 |----|
29
口口口口 |----|
口口口口 |----|
口口口口 |----|
口口口口 |----|
30
口口口口 |①---|
口口口口 |----|
口口②口 |②---|
口口①口 |----|
31
口②③口 |①---|
口口①口 |----|
口口口口 |②---|
口口口口 |③---|
32
①口口口 |①---|
②口口口 |----|
口口口口 |②---|
口口口口 |----|
33
口口口口 |----|
口口口口 |----|
口口口口 |----|
口口口口 |----|
34
口口口口 |①---|
口口口口 |----|
口②口口 |②---|
①①口口 |----|
35
口③②口 |①---|
口①口口 |----|
口口口口 |②---|
口口口口 |③---|
36
口口口① |①---|
口口口② |----|
口口口口 |②---|
口口口口 |----|
37
口口口口 |----|
口口口口 |----|
口口口口 |----|
口口口口 |----|
38
口口口口 |①---|
口口口口 |----|
口口②口 |②---|
口口①① |----|
39
口②③口 |①---|
口口①口 |----|
口口口口 |②---|
口口口口 |③---|
40
①口口口 |①---|
②口口口 |----|
口口口口 |②---|
口口口口 |----|
41
口口口口 |----|
口口口口 |----|
口口口口 |----|
口口口口 |----|
42
口口口口 |①---|
口①②口 |----|
口①②口 |----|
口口口口 |--②-|
43
口口口口 |----|
口口口口 |----|
口口口口 |----|
口口口口 |----|
44
口口口口 |①---|
①口口② |----|
①口口② |----|
口口口口 |--②-|
45
口口口口 |----|
口口口口 |----|
口口口口 |----|
口口口口 |----|
46
口口口口 |①---|
口口口口 |----|
口②②口 |②---|
口①①口 |----|
47
口②②口 |①---|
口①①口 |----|
口口口口 |②---|
口口口口 |----|
48
口口口口 |①---|
口口口口 |----|
②口口② |②---|
①口口① |----|
49
②口口② |①---|
①口口① |----|
口口口口 |②---|
口口口口 |----|
50
口①口口 |①---|
口口②口 |②---|
口③口口 |③---|
口口④口 |④---|
51
④口口口 |①---|
③口口口 |②---|
②口口口 |③---|
①口口口 |④---|
52
口口①口 |①---|
口②口口 |②---|
口口③口 |③---|
口④口口 |④---|
53
口口口④ |①---|
口口口③ |②---|
口口口② |③---|
口口口① |④---|
54
口①口口 |①---|
口口②口 |②---|
口③口口 |③---|
口口④口 |④---|
55
④口口口 |①---|
③口口口 |②---|
②口口口 |③---|
①口口口 |④---|
56
口口①口 |①---|
口②口口 |②---|
口口③口 |③---|
口④口口 |④---|
57
口口口口 |①---|
口口③口 |②---|
口②口口 |③---|
口口①口 |----|
58
①口口口 |①---|
口口口② |②---|
③口口口 |③---|
口口口④ |④---|
59
口④口口 |①---|
口③口口 |②---|
口②口口 |③---|
口①口口 |④---|
60
口口口① |①---|
②口口口 |②---|
口口口③ |③---|
④口口口 |④---|
61
口口④口 |①---|
口口③口 |②---|
口口②口 |③---|
口口①口 |④---|
62
①口口口 |①---|
口口口② |②---|
③口口口 |③---|
口口口④ |④---|
63
口④口口 |①---|
口③口口 |②---|
口②口口 |③---|
口①口口 |④---|
64
口口①口 |①---|
口口②口 |②---|
口口③口 |③---|
口口④口 |④---|
65
口口口口 |①---|
口③口口 |②---|
口②口口 |③---|
口①口口 |----|
66
口口口口 |①---|
口口口口 |----|
口口②② |②---|
①①口口 |----|
67
口口②② |①---|
①①口口 |----|
口口口口 |②---|
口口口口 |----|
68
口口口口 |①---|
口口口口 |----|
②口口② |②---|
口①①口 |----|
69
口②②口 |①---|
①口口① |----|
口口口口 |②---|
口口口口 |----|
70
口口口口 |①---|
②口口口 |②---|
③①①口 |③---|
④口口口 |④---|
71
口口口口 |①---|
口口口口 |②---|
口口口④ |③---|
口①②③ |④---|
72
口④③② |①---|
口口口① |②---|
口口口口 |③---|
口口口口 |④---|
73
口口口口 |①---|
口①④口 |②---|
口②③口 |③---|
口口口口 |④---|
74
①②③④ |①---|
口口口口 |②---|
口口口口 |③---|
口口口口 |④---|
75
口口口口 |①---|
口口口① |②---|
口口口② |③---|
口口④③ |④---|
76
口口口口 |①---|
④口口口 |②---|
③口口口 |③---|
②①口口 |④---|
77
口口口口 |①---|
口①②口 |②---|
口口③口 |③---|
口口口口 |----|
78
口口口口 |①---|
口口口口 |----|
口口②② |②---|
①①口口 |----|
79
口口②② |①---|
①①口口 |----|
口口口口 |②---|
口口口口 |----|
80
口口口口 |①---|
口口口口 |----|
②口口② |②---|
口①①口 |----|
81
口②②口 |①---|
①口口① |----|
口口口口 |②---|
口口口口 |----|
82
口口口口 |①---|
口①①口 |----|
口①①口 |----|
口口口口 |----|

不確定度: 0

最終更新:2016年07月27日 16:51