響縁
豚乙女

ADVANCED

Level: 7
BPM: 180
Notes: 426

1
口口口口 |----|
口口口口 |----|
口口口口 |----|
口口口口 |----|
2
①①口口 |①---|
①①口口 |----|
口口口口 |----|
口口口口 |----|
3
口口口口 |①---|
口口口口 |----|
②口口① |②---|
口口口口 |----|
4
口口①① |①---|
口口①① |----|
口口口口 |----|
口口口口 |----|
5
口口口口 |①---|
①口口② |----|
口口口口 |②---|
口口口口 |----|
6
口口口口 |①---|
口口口口 |----|
①①口口 |----|
①①口口 |----|
7
口口口口 |①---|
②口口① |----|
口口口口 |②---|
口口口口 |----|
8
口口口口 |①---|
口口口口 |----|
口口①① |----|
口口①① |----|
9
口口口口 |①---|
口①①口 |----|
口口口口 |----|
口口口口 |----|
10
口④③口 |①---|
口口口口 |②---|
口②口⑤ |③-④-|
①口口口 |--⑤-|
11
口③口口 |--①-|
③口③口 |②---|
口①①口 |③---|
口②②口 |----|
12
①口口口 |①---|
口②口⑤ |②---|
口口口口 |③-④-|
口④③口 |--⑤-|
13
口③口④ |--①-|
口②①口 |②---|
口①②⑤ |③--④|
口口口口 |--⑤-|
14
口口口口 |①---|
口口口口 |②---|
②②口口
①①口口

口口④口
③③口口
口口口口 |③-④-|
口⑤口口 |--⑤-|
15
口口⑤口 |--①-|
口口①口 |②---|
口①④② |③--④|
③口②口 |--⑤-|
16
①口⑦口 |①---|
口口口⑥ |②-③-|
②口口⑤ |④-⑤-|
口③④口 |⑥-⑦-|
17
口①口口 |①-②-|
②口口口 |③-④-|
③口口口 |⑤---|
⑥④⑤口 |⑥---|
18
①口①口 |①---|
⑤⑤口② |②---|
口③④口 |③-④-|
口口口口 |⑤---|
19
口口①① |①---|
口口③③ |②-③-|
口④④口 |----|
口②口口 |④---|
20
口②口口 |①---|
口口③③ |②-③-|
④口口④ |----|
①口口① |④---|
21
口口⑤⑤ |①---|
口②口口 |②---|
口④③口 |③-④-|
口①①口 |⑤---|
22
①①口口 |①---|
⑤⑤口口 |②---|
口口口② |③-④-|
口③④口 |⑤---|
23
口口①① |①---|
口④③③ |②-③-|
口②⑤⑤ |--④-|
口口口口 |⑤---|
24
口口口口 |①---|
口口口口 |----|
口口口口 |----|
①口口口 |----|
25
①口口① |①---|
口口口口 |----|
口口口口 |----|
口口口口 |----|
26
口口口口 |①---|
口②③口 |--②-|
口口口口 |③---|
口口①口 |----|
27
①口口② |①---|
口口③口 |----|
口口口④ |②-③-|
口口⑤口 |④-⑤-|
28
口口口口 |①---|
口②口口 |--②-|
口口③口 |③---|
口口口① |----|
29
口口口口 |----|
口口口口 |----|
口口口口 |----|
口口口口 |----|
30
口口口口 |①---|
口③②口 |--②-|
口口口口 |③---|
①口口口 |----|
31
②口口① |①---|
口③口口 |----|
④口口口 |②-③-|
口⑤口口 |④-⑤-|
32
口口口口 |①---|
口口②口 |--②-|
口③口口 |③---|
①口口口 |----|
33
口口口口 |----|
口口口口 |----|
口口口口 |----|
口口口口 |----|
34
口口口口 |①---|
口②③口 |--②-|
口口口口 |③---|
口口口① |----|
35
①口口② |①---|
口口③口 |----|
口口口④ |②-③-|
口口⑤口 |④-⑤-|
36
口口口口 |①---|
口②口口 |--②-|
口口③口 |③---|
口口口① |----|
37
口口口口 |①---|
口口口口 |----|
口口口口 |②---|
①口口② |----|
38
口口口口 |①---|
口③②口 |--②-|
口口口口 |③---|
①口口口 |----|
39
②口口① |①---|
口③口口 |----|
④口口口 |②-③-|
口⑤口口 |④-⑤-|
40
口口口口 |①---|
口口②口 |--②-|
口③口口 |③---|
①口口口 |----|
41
口口口口 |①---|
口口口口 |----|
口口口口 |②---|
②口口① |----|
42
②口口② |①---|
口①①口 |----|
口①①口 |----|
口口口口 |--②-|
43
口口口口 |----|
口口口口 |----|
口口口口 |----|
口口口口 |----|
44
口口口口 |①---|
口口口口 |----|
口②②口 |----|
①口口① |--②-|
45
口口口口 |----|
口口口口 |----|
口口口口 |----|
口口口口 |----|
46
③口口口 |①---|
②③口口 |--②-|
①②口口 |----|
口①口口 |③---|
47
口口口③ |①---|
口口③② |--②-|
口口②① |----|
口口①口 |③---|
48
口①①口 |①---|
口口口口 |----|
口口口口 |----|
口口口口 |----|
49
口口口口 |----|
口口口口 |----|
口口口口 |----|
口口口口 |----|
50
口⑤⑥口 |①-②-|
口口④口 |③-④-|
口③口⑦ |⑤-⑥-|
①口口② |--⑦-|
51
口③口口 |--①-|
③④③口 |②---|
口①①口 |③--④|
⑤②②口 |--⑤-|
52
②口口① |①-②-|
口口口⑦ |③-④-|
④口口③ |⑤-⑥-|
口⑥⑤口 |--⑦-|
53
口③口④ |--①-|
口②①口 |②---|
口①②⑤ |③--④|
口口口口 |--⑤-|
54
口口口口 |①-②-|
⑤口口⑥ |③-④-|
口③④口 |⑤-⑥-|
①⑦口② |--⑦-|
55
口口⑤口 |--①-|
口口①口 |②---|
口①④② |③--④|
③口②口 |--⑤-|
56
口口⑧口 |①-②-|
口②①⑦ |③-④-|
③口口⑥ |⑤-⑥-|
口④⑤口 |⑦-⑧-|
57
口①口口 |①-②-|
②口口口 |③-④-|
③口口口 |⑤---|
口④⑤口 |----|
58
①口③口 |①-②-|
⑤②口④ |③-④-|
口口口⑦ |⑤-⑥-|
口口口⑥ |--⑦-|
59
口口⑥口 |--①-|
口口口⑥ |②-③-|
①口⑤口 |④--⑤|
②③④口 |--⑥-|
60
①口口② |①-②-|
口③④⑦ |③-④-|
口口口口 |⑤-⑥-|
⑤口口⑥ |--⑦-|
61
①口口⑤ |--①-|
②口④口 |②-③-|
③口口口 |④--⑤|
口口口⑥ |--⑥-|
62
⑦⑦⑧口 |①-②-|
⑤⑤⑥口 |③-④-|
③③④口 |⑤-⑥-|
①①②口 |⑦-⑧-|
63
口口⑥口 |--①-|
口口口③ |②-③-|
②②⑤口 |④--⑤|
④口①① |--⑥-|
64
①①口口 |①---|
口③口口 |②-③-|
口口口口
口口②②

⑦口口口
⑤口口⑥
口口④口 |④-⑤-|
口口口口 |⑥-⑦-|
65
⑤①口口 |--①-|
⑤②口口 |②-③-|
口③口口 |④---|
口④口口 |--⑤-|
66
口口口③ |①---|
口口口③ |--②-|
②④口① |③---|
②口口① |--④-|
67
口口⑤口 |①-②-|
②④口口 |③-④-|
口口口③ |⑤---|
⑥⑥①口 |⑥---|
68
①①④④ |①---|
③口口② |--②-|
③口口② |③---|
口口口口 |--④-|
69
③③口口 |①-②-|
口⑥④④ |③-④-|
⑤⑤⑥口 |⑤---|
①①②② |⑥---|
70
口口口① |①---|
口口口口 |----|
口口口口 |----|
①口口口 |----|
71
⑥口口口 |--①-|
①②③口 |②-③-|
⑤口口口 |④--⑤|
④口口口 |--⑥-|
72
口口⑤① |①---|
口口口口 |②---|
口②口口 |③-④-|
口④③口 |--⑤-|
73
口口口⑥ |--①-|
口③②① |②-③-|
口口口⑤ |④--⑤|
口口口④ |--⑥-|
74
①口⑤口 |①---|
口④③口 |②---|
口②口口 |③-④-|
口口口口 |--⑤-|
75
口⑥口口 |--①-|
口⑤口口 |②-③-|
①②③口 |④--⑤|
口④口口 |--⑥-|
76
口口⑤口 |①---|
口④③① |②---|
口口口口 |③-④-|
②口口口 |--⑤-|
77
⑤口口口 |--①-|
⑤口口口 |②-③-|
④③②① |④---|
口口口口 |--⑤-|
78
口口口③ |①---|
口口口③ |--②-|
②口口① |③---|
②④口① |--④-|
79
口口①⑤ |①-②-|
②口口口 |③-④-|
⑥⑥口口 |⑤---|
④口口③ |⑥---|
80
①①口口 |①---|
③③口口 |--②-|
口口口口 |③---|
④④②② |--④-|
81
②②①① |①-②-|
口⑥③③ |③-④-|
④④⑥口 |⑤---|
口口⑤⑤ |⑥---|
82
口口①① |①---|
口口口口 |----|
口口口口 |----|
①①口口 |----|

不確定度: 0

最終更新:2016年07月27日 16:51