響縁
豚乙女

EXTREME

Level: 9
BPM: 180
Notes: 742

1
口口口口 |----|
口口口口 |----|
口口口口 |----|
口口口口 |----|
2
③口口⑨ |①-②-|
⑩⑤④口 |③-④⑤|
口⑦⑥口 |⑥⑦⑧-|
①口⑧② |⑨-⑩-|
3
②②⑤⑤ |①---②-|
⑥⑥③③ |--③---|
④④口口 |④---⑤-|
①①口口 |--⑥---|
4
口⑥⑦⑨ |①-②-|
口⑧口③ |③-④⑤|
口④⑤⑨ |⑥⑦⑧-|
②口①① |⑨---|
5
①口口⑥ |①---②-|
①口④⑥ |--③---|
③③④口 |④---⑤-|
⑤⑤②② |--⑥---|
6
①①口⑨ |①-②-|
口⑤④⑨ |③-④⑤|
③⑦⑥口 |⑥⑦⑧-|
口口⑧② |⑨---|
7
⑤①口⑥ |①---②-|
①⑤②⑥ |--③---|
③口④④ |④---⑤-|
口③口② |--⑥---|
8
口⑤④⑨ |①-②-|
③⑦⑥口 |③-④⑤|
口①⑧口 |⑥⑦⑧-|
①口口② |⑨---|
9
①口口口 |①---|
口④口口 |②--③|
口口⑤⑤ |④---|
②口③① |⑤---|
10
⑤口口① |①---|
③口口口 |②---|
⑤口口④ |③-④-|
②口口口 |--⑤-|
11
口③口口 |--①-|
③④③口 |②---|
口①①口 |③--④|
口②②⑤ |--⑤-|
12
口口口② |①---|
口口口口 |②---|
①口口②
①口口口

口⑤③口
口口口口
⑤口口口 |③-④-|
口④口口 |--⑤-|
13
②口口① |--①-|
⑤②①④ |②---|
口①②口 |③--④|
①③口② |--⑤-|
14
口③口⑤ |①---|
⑤口②④ |②---|
口①口口 |③-④-|
①口口② |--⑤-|
15
⑤口口④ |--①-|
口口①③ |②---|
⑤①④② |③--④|
口口②③ |--⑤-|
16
口⑧⑦口 |①-②-|
口②①⑥ |③-④-|
口③口⑤ |⑤-⑥-|
口口④口 |⑦-⑧-|
17
口口口口 |①-②-|
①口口口 |③-④-|
②口口⑤ |⑤---|
⑥③④⑥ |⑥---|
18
①②②① |①---|
口⑤⑤口 |②---|
口口口口 |③-④-|
口③④口 |⑤---|
19
口③⑥口 |①---|
①口口口 |②-③-|
①③⑥口 |④-⑤-|
口⑤④② |⑥---|
20
口⑤⑤① |①---|
口②口① |②-③-|
口口④口 |--④-|
③口口③ |⑤---|
21
口口口口 |①---|
②口口口 |②---|
口口口口
口①①口

口口口口
口口口口
口③④口 |③-④-|
⑤⑥⑦⑧ |⑤⑥⑦⑧|
22
⑤①①⑤ |①---|
②口口② |②---|
口③④口 |③-④-|
口口口口 |⑤---|
23
口②口口 |①---|
口⑤③口 |②-③-|
⑥口④① |④-⑤-|
⑥⑤③① |⑥---|
24
口⑦⑦② |①-②-|
③口⑧④ |③-④-|
口口口① |⑤-⑥-|
口⑥④⑤ |⑦-⑧-|
25
①口口① |①---|
口口口口 |----|
口①①口 |----|
口口口口 |----|
26
口口口口 |①---|
口②口口 |--②-|
口口③口 |③---|
①口口口 |----|
27
口口①① |①---|
口③④口 |----|
口口口口 |②-③-|
②口口⑤ |④-⑤-|
28
口口②口 |①---|
口口口口 |--②-|
口①口口 |③---|
口③口口 |----|
29
口口口口 |----|
口口口口 |----|
口口口口 |----|
口口口口 |----|
30
口口口口 |①---|
口口②口 |--②-|
口③口口 |③---|
口口口① |----|
31
①①④④ |①---|
口口口口 |----|
口②⑤口 |②-③-|
口口③口 |④-⑤-|
32
①口口口 |①---|
口口②口 |--②-|
口口口口 |③---|
口③口口 |----|
33
口口口口 |----|
口口口口 |----|
口口口口 |----|
口口口口 |----|
34
口口口口 |①---|
口③口② |②-③-|
⑥口④⑤ |④---|
①口口① |⑤-⑥-|
35
口口①① |①---|
口口口口 |②-③-|
口口口口
口②③口

④口口⑦
口⑤⑥口
口口口口 |④-⑤-|
口口口口 |⑥-⑦-|
36
口口③口 |①---|
口口口口 |②-③-|
②①口⑥ |④---|
口④口⑤ |⑤-⑥-|
37
口口口口 |①---|
④⑥口① |②-③-|
③口⑤口 |④---|
②口口口 |⑤-⑥-|
38
口口口口 |①---|
口⑤③口 |②-③-|
②④口⑥ |④---|
口口口① |⑤-⑥-|
39
①①⑥⑥ |①---|
②口口③ |②-③-|
口④⑦口 |④-⑤-|
口口⑤口 |⑥-⑦-|
40
①口口口 |①---|
口口③⑥ |②-③-|
②口口⑤ |④---|
口④口口 |⑤-⑥-|
41
④口口① |①---|
③⑥⑤口 |②-③-|
②口口口 |④---|
口口口口 |⑤-⑥-|
42
⑦①①口 |①-②-|
口口口口 |③-④-|
⑥⑤④③ |⑤-⑥-|
口②②⑦ |--⑦-|
43
口口口① |--①-|
②③④⑤ |②-③-|
口口口口 |④-⑤-|
①口口口 |----|
44
①口口① |①-②-|
口口口口 |③-④-|
③④口口
②口口②

⑦⑦⑦⑦
口口口口
口口⑤口 |⑤---|
口⑥⑥口 |⑥-⑦-|
45
口口口口 |--①-|
①口口② |②-③-|
①③④② |④---|
③口口④ |----|
46
①①①口 |①---|
口口②口 |--②-|
口②口口 |----|
口③口口 |③---|
47
①①①口 |①---|
口口②口 |--②-|
口②口口 |----|
口③口口 |③---|
48
①①③③ |①-②-|
②②④④ |--③-|
口⑤⑤口 |④---|
口⑥⑥口 |⑤-⑥-|
49
口⑥⑥口 |--①-|
②③④⑤ |②③④⑤|
⑥口口⑥ |⑥---|
①口口① |----|
50
①口口口 |①-②-|
口③口④ |③-④-|
口①口口
③口②口

⑧⑤口⑦
⑤口⑥口
⑧口口⑥ |⑤-⑥-|
口口口口 |⑦-⑧-|
51
口⑤④⑧ |①-②-|
⑤⑦⑤⑥ |③-④-|
⑨②②口 |⑤-⑥⑦|
口③③① |⑧-⑨-|
52
③⑧⑤口 |①-②-|
⑥口口⑤ |③-④-|
⑧③①② |⑤-⑥-|
①⑥⑦④ |⑦-⑧-|
53
③口④② |①-②-|
口③②口 |③-④-|
口②③①
②口口③

口⑦口口
⑤口口⑥
⑦口口⑨ |⑤-⑥⑦|
口⑤⑧口 |⑧-⑨-|
54
口⑤⑥⑧ |①-②-|
⑧③①⑥ |③-④-|
⑤②④口 |⑤-⑥-|
①⑦口③ |⑦-⑧-|
55
①口口口 |①-②-|
口口②口 |③-④-|
口②口③
④口③口

⑨⑧口⑦
口口口⑤
⑨口⑦口 |⑤-⑥⑦|
口⑥口⑤ |⑧-⑨-|
56
口⑥⑤口 |①-②-|
⑥②①⑤ |③-④-|
口③⑧④ |⑤-⑥-|
口⑦④口 |⑦-⑧-|
57
①⑤④② |①-②-|
口①②口 |③-④-|
⑤③口④ |⑤---|
③口口口 |----|
58
①口口口 |①-②-|
口②①口 |③-④-|
口③口口
口口④③

口⑦⑥⑨
⑤口⑨口
⑦口⑧口 |⑤-⑥⑦|
⑤口口口 |⑧-⑨-|
59
①⑤⑥口 |①-②-|
口⑨⑧⑤ |③-④-|
⑦④⑨② |⑤-⑥⑦|
⑦③③② |⑧-⑨-|
60
口口口① |①-②③|
②口口⑤ |④-⑤-|
口口口①
口④③⑤

⑥口⑦口
口⑧口口
⑩口⑨⑩ |⑥-⑦⑧|
⑧口口口 |⑨-⑩-|
61
⑦②口① |①-②-|
③⑦⑧口 |③-④-|
⑨④口口 |⑤-⑥⑦|
⑤⑨⑥口 |⑧-⑨-|
62
口③③① |①-②-|
②口口① |③-④-|
口口④①
口口口①

⑦口口⑧
口⑦⑥⑧
口⑤口口 |⑤-⑥-|
⑤口⑥口 |⑦-⑧-|
63
口②④口 |①-②-|
口口口口 |③-④-|
②口③④
口③口①

⑧口口⑦
⑥口⑦⑨
口⑤口口 |⑤-⑥⑦|
口口⑤⑨ |⑧-⑨-|
64
口③④⑧ |①-②-|
口①口⑧ |③-④-|
③⑤②④ |⑤-⑥-|
①⑦⑥口 |⑦-⑧-|
65
口②口口 |①-②-|
③①③口 |③-④-|
口④口口
口口口口

口口口口
口⑥口口
口口口口 |⑤---|
⑤口⑤⑥ |--⑥-|
66
口口①③ |①---|
②口④口 |--②-|
①③口口 |③---|
④口②口 |--④-|
67
⑤①②口 |①-②-|
口③口④ |③-④-|
②口⑤① |⑤---|
⑥④⑥③ |⑥---|
68
口①④① |①---|
口③②口 |--②-|
口②③④ |③---|
口口口口 |--④-|
69
②⑥口② |①-②-|
①⑤④⑥ |③-④-|
⑥④⑤口 |⑤---|
③①⑥③ |⑥---|
70
③⑦①② |①-②-|
①口⑥口 |③-④-|
口⑥⑦① |⑤-⑥-|
⑤①口④ |--⑦-|
71
①⑥口① |--①-|
口②⑤口 |②-③-|
③口⑦口 |④-⑤⑥|
⑦④口③ |--⑦-|
72
③口②口 |①-②-|
口⑥口⑥ |③-④-|
⑤①口⑦ |⑤-⑥-|
口⑦④口 |--⑦-|
73
口④①口 |--①-|
①口口⑤ |②-③-|
⑦②口⑦ |④-⑤⑥|
③⑥③口 |--⑦-|
74
①口口② |①-②-|
⑤⑥⑥口 |③-④-|
口③⑦口 |⑤-⑥-|
⑦口口④ |--⑦-|
75
④①口① |--①-|
口⑦⑤口 |②-③-|
②口⑦口 |④-⑤⑥|
⑥③口③ |--⑦-|
76
⑦①②口 |①-②-|
⑤口口⑥ |③-④-|
口⑥口⑦ |⑤-⑥-|
口③④口 |--⑦-|
77
口口①口 |--①-|
口⑤口口 |②-③-|
①④口口 |④---|
③②③⑤ |--⑤-|
78
口口①③ |①---|
②口④口 |--②-|
①③口口 |③---|
④口②口 |--④-|
79
⑤①②口 |①-②-|
口③口④ |③-④-|
②口⑤① |⑤---|
⑥④⑥③ |⑥---|
80
口①④① |①---|
口③②口 |--②-|
口②③④ |③---|
口口口口 |--④-|
81
②⑥口② |①-②-|
①⑤④⑥ |③-④-|
⑥④⑤口 |⑤---|
③①⑥③ |⑥---|
82
口口①口 |①---|
①口口口 |----|
口口口① |----|
口①口口 |----|

不確定度: 0

最終更新:2016年07月27日 16:51