夏にキスしていいですか?
アルスマグナ

EXTREME

Level: 8
BPM: 120-160
Notes: 536

BPM: 120
1
口口口口 |----|
口口口口 |----|
口口口口 |----|
口口口口 |----|
2
⑤口①口 |①---|
口口①① |--②-|
③③口口 |③---|
②③口④ |④-⑤-|
3
口②口口 |①-②-|
②②口口 |--③-|
口③①①
③③①口

⑥口口口
口口口④
⑥口口⑤ |--④-|
口口口④ |⑤-⑥-|
4
口口口口 |①---|
①口口口 |----|
口口口口 |----|
口口口口 |----|

BPM: 160
5
口④口④ |①---|
口口③口 |②---|
口④②④ |③---|
口口①口 |④---|
6
②口⑤⑥ |①---|
口③⑤⑤ |--②-|
①③③口 |③-④-|
①①口④ |⑤-⑥-|
7
口⑥口口 |①-②③|
⑤⑧⑦口 |④-⑤⑥|
口④口③ |⑦---|
①口②⑧ |⑧---|
8
②口⑤⑥ |①---|
口③⑤⑤ |--②-|
①③③口 |③-④-|
①①口④ |⑤-⑥-|
9
③②口口 |①---|
①④口口 |②---|
口口③② |③---|
口口①④ |④---|
10
②口⑤⑥ |①---|
口③⑤⑤ |--②-|
①③③口 |③-④-|
①①口④ |⑤-⑥-|
11
口⑥口口 |①-②③|
⑤⑧⑦口 |④-⑤⑥|
口④口③ |⑦---|
①口②⑧ |⑧---|
12
②口⑤⑥ |①---|
口③⑤⑤ |--②-|
①③③口 |③-④-|
①①口④ |⑤-⑥-|
13
③②口口 |①---|
①④口口 |②---|
口口③② |③---|
口口①④ |④---|
14
口口④② |①---|
口口①③ |②---|
④②口口 |③---|
①③口口 |④---|
15
口①口口 |①---|
口②口口 |②---|
口口口①
口口口②

③⑤口⑤
⑤口⑤口
口口③口 |③-④-|
口④④口 |⑤---|
16
口口口⑤ |--①-|
口口口口 |②-③-|
①②③④ |④---|
口口口口 |⑤---|
17
口口口口 |--①-|
⑥口口口 |②-③-|
⑤口口口 |④-⑤-|
④③②① |⑥---|
18
①②③④ |--①-|
口口口口 |②-③-|
口口口⑤ |④---|
口口口口 |⑤---|
19
口⑦口口 |--①-|
口⑤⑥口 |②-③-|
口③④口 |④-⑤-|
口①②口 |⑥-⑦-|
20
口口①⑦ |①-②-|
口口口⑥ |③-④-|
②③④⑤ |⑤-⑥-|
口口口口 |⑦---|
21
口口口口 |①-②-|
口口口⑦ |③-④-|
①口口⑥ |⑤-⑥-|
②③④⑤ |⑦---|
22
口口口口 |--①-|
①②③④ |②-③-|
口口口口 |④---|
口口口⑤ |⑤---|
23
口⑦口口 |--①-|
口⑤⑥口 |②-③-|
口③④口 |④-⑤-|
口①②口 |⑥-⑦-|
24
口口①口 |①---|
口口④口 |②---|
口③口口 |③---|
②口口口 |④---|
25
口口③① |①---|
口口口③ |②-③-|
②口口口
口②口口

口⑤口⑤
口口口口
口口口口 |--④-|
④口④口 |--⑤-|
26
③口口口 |--①-|
⑥②①⑥ |②-③-|
④①②④ |④---|
口⑤⑤③ |⑤-⑥-|
27
口口口③ |----|
口①②口 |----|
口②①口 |--①-|
③口口口 |②-③-|
28
⑥③口口 |--①-|
②⑤④① |②-③-|
①④⑤② |--④-|
口口③⑥ |⑤-⑥-|
29
口口③口 |--①-|
①口口② |②-③-|
②口口①
口③口口

口口口口
④口口口
口口口口 |----|
口口口口 |--④-|
30
口口⑤口 |--①-|
口口口④ |②-③-|
口①②③ |④---|
⑥口口⑥ |⑤-⑥-|
31
口口口口 |--①-|
②口口② |--②-|
①口口① |----|
口口口口 |----|
32
口⑦口⑦ |①-②-|
口口⑥口 |③-④-|
①⑦⑤⑦ |⑤-⑥-|
②③④口 |⑦---|
33
⑤口口⑥ |①-②-|
①口口② |③-④-|
⑦口口⑧ |⑤-⑥-|
③口口④ |⑦-⑧-|
34
③①①③ |①---|
口③③口 |②---|
④③③④ |③---|
②口口② |--④-|
35
③①②④ |--①-|
口口口⑦ |②-③-|
口口口口 |④-⑤-|
⑤口口⑥ |⑥-⑦-|
36
口口口③ |①---|
口②③口 |②---|
①口②口 |③---|
口①口口 |----|
37
①口②口 |①-②-|
③①④② |③-④-|
口③口④
口口口口

⑦口⑧口
口⑦口⑧
⑤口⑥口 |⑤-⑥-|
口⑤口⑥ |⑦-⑧-|
38
口口口口 |①---|
口口口口 |②---|
②口口②
①口①口

③口口③
④③③④
口③③口 |③---|
口⑤⑤口 |④-⑤-|
39
口①①口 |①---|
②口口② |----|
口口口口 |----|
②口口② |--②-|
40
③③③③ |①---|
④①①④ |②-③-|
②②②② |--④-|
④①①④ |----|
41
口口口口 |①-②-|
⑧⑦⑥⑤ |③-④-|
①②③④ |⑤-⑥-|
口口口口 |⑦-⑧-|
42
口②②口 |①-②-|
口口口口 |③-④-|
口④④口
③①①③

⑤口口⑤
口口⑥⑦
口口口口 |⑤-⑥-|
口⑧⑧口 |⑦-⑧-|
43
口口口口 |--①-|
①②③④ |②-③-|
口⑦⑥⑤ |④-⑤-|
口口口口 |⑥-⑦-|
44
口口口口 |①-②-|
①③⑥⑦ |③-④-|
⑤口口⑤ |⑤-⑥-|
口口④② |⑦---|
45
③口口口 |①---|
②④口口 |--②-|
口①口④ |③---|
口③②① |--④-|
46
③①口口 |--①-|
②口口① |--②-|
口口口口 |③---|
口③②口 |----|
47
⑤口①口 |①---|
口口①① |--②-|
③③口口 |③---|
②③口④ |④-⑤-|
48
口②口口 |①-②-|
②②口口 |--③-|
口③①①
③③①口

⑥口口口
口口口④
⑥口口⑤ |--④-|
口口口④ |⑤-⑥-|
49
口⑥①① |①-②-|
①⑥④④ |③---|
⑤⑤③口 |④-⑤-|
②②③口 |⑥---|
50
口⑥口⑥ |①-②-|
口口⑤口 |③-④-|
口⑥④⑥ |⑤---|
①②③口 |⑥---|
51
②口⑤⑥ |①---|
口③⑤⑤ |--②-|
①③③口 |③-④-|
①①口④ |⑤-⑥-|
52
口⑥口口 |①-②③|
⑤⑧⑦口 |④-⑤⑥|
口④口③ |⑦---|
①口②⑧ |⑧---|
53
②口⑤⑥ |①---|
口③⑤⑤ |--②-|
①③③口 |③-④-|
①①口④ |⑤-⑥-|
54
③②口口 |①---|
①④口口 |②---|
口口③② |③---|
口口①④ |④---|
55
②口⑤⑥ |①---|
口③⑤⑤ |--②-|
①③③口 |③-④-|
①①口④ |⑤-⑥-|
56
口⑥口口 |①-②③|
⑤⑧⑦口 |④-⑤⑥|
口④口③ |⑦---|
①口②⑧ |⑧---|
57
②口⑤⑥ |①---|
口③⑤⑤ |--②-|
①③③口 |③-④-|
①①口④ |⑤-⑥-|
58
③②口口 |①---|
①④口口 |②---|
口口③② |③---|
口口①④ |④---|
59
口口④② |①---|
口口①③ |②---|
④②口口 |③---|
①③口口 |④---|
60
口①口口 |①---|
口②口口 |②---|
口口口①
口口口②

③⑤口⑤
⑤口⑤口
口口③口 |③-④-|
口④④口 |⑤---|

不確定度: 0

最終更新:2016年07月27日 16:49