君の知らない物語


BASIC

Level: 2
BPM: 165
Notes: 143

1
口口口口 |----|
口口口口 |----|
口口口口 |----|
口口口口 |----|
2
口口口口 |①---|
口口口口 |----|
口口口口 |----|
①口口口 |----|
3
口口口口 |①---|
口口口口 |----|
口口口口 |----|
口口口① |----|
4
口口口口 |①---|
口口口口 |----|
①口口口 |----|
口口口口 |----|
5
口口口口 |①---|
口口①口 |----|
口口口口 |----|
口口口口 |----|
6
口口口口 |①---|
①口口口 |----|
口口口口 |----|
口口口口 |----|
7
口口口口 |①---|
口口口① |----|
口口口口 |----|
口口口口 |----|
8
③口口③ |①---|
②口口② |--②-|
口①①口 |----|
口口口口 |--③-|
9
口口口口 |----|
口①②口 |--①-|
口口口口 |--②-|
口口口口 |----|
10
口①①口 |①---|
口口口口 |----|
口口口口 |----|
口口口口 |----|
11
口口口口 |①---|
①口口口 |----|
口口口口 |----|
口口口口 |----|
12
口口口口 |①---|
口口口① |----|
口口口口 |----|
口口口口 |----|
13
口口口口 |①---|
①②③④ |②---|
口口口口 |③---|
口口口口 |④---|
14
口①①口 |①---|
口口口口 |----|
口口口口 |----|
口口口口 |----|
15
口口口口 |①---|
口①①口 |----|
口口口口 |----|
口口口口 |----|
16
口口口口 |①---|
口口口口 |----|
口①①口 |----|
口口口口 |----|
17
口口口口 |①---|
口口口口 |----|
口口口口 |----|
口①①口 |----|
18
口口口口 |①---|
①②口口 |----|
口口口口 |②---|
口口口口 |----|
19
口口口口 |①---|
口口①② |----|
口口口口 |②---|
口口口口 |----|
20
口口②① |①---|
口口口口 |----|
口口口口 |②---|
口口口口 |----|
21
②①口口 |①---|
口口口口 |----|
口口口口 |②---|
口口口口 |----|
22
口口口口 |①---|
①②③④ |②---|
口口口口 |③---|
口口口口 |④---|
23
口口口口 |①---|
口口口口 |②---|
④③②① |③---|
口口口口 |④---|
24
口口口口 |①---|
④③②① |②---|
口口口口 |③---|
口口口口 |④---|
25
口口口口 |①---|
口口口口 |②---|
①②③④ |③---|
口口口口 |④---|
26
口口口口 |①---|
口口口口 |----|
口②②口 |②---|
口①①口 |----|
27
口②②口 |①---|
口①①口 |----|
口口口口 |②---|
口口口口 |----|
28
①口口① |①---|
②口口② |----|
口口口口 |②---|
口口口口 |----|
29
口口口口 |①---|
口口口口 |----|
①口口① |②---|
②口口② |----|
30
口口口口 |①---|
口口口口 |----|
口①①口 |----|
口口口口 |----|
31
口口口口 |----|
口口口口 |----|
口口口口 |----|
口口口口 |----|
32
③④口口 |①---|
②①口口 |②---|
口口口口 |③---|
口口口口 |④---|
33
口口口③ |----|
口口①② |①---|
口口口口 |②---|
口口口口 |③---|
34
④口①口 |①---|
③②口口 |②---|
口口口口 |③---|
口口口口 |④---|
35
口口口口 |----|
口①①口 |----|
口口口口 |①---|
口口口口 |----|
36
①口口口 |①---|
口口口口 |----|
口口口口 |----|
口口口口 |----|
37
口口口口 |①---|
口①②口 |----|
口口口口 |②---|
口口口口 |----|
38
口②口① |①---|
口口口口 |----|
口口口口 |----|
口口口口 |②---|
39
口口①口 |①---|
口口口口 |----|
口口口口 |----|
口口口口 |----|
40
口口口口 |①---|
口口口口 |----|
②口口口 |----|
口①①口 |②---|
41
口口口口 |①---|
口口口④ |②---|
口①②③ |③---|
口口口口 |④---|
42
口口口口 |①---|
口口①口 |----|
口口口② |----|
口口口口 |②---|
43
口口口口 |①---|
④口口口 |②---|
③②①口 |③---|
口口口口 |④---|
44
口口口口 |①---|
口①口口 |----|
口口口口 |----|
口口口口 |----|
45
口口口口 |----|
①②口口 |----|
口口口口 |①---|
口口口口 |②---|
46
口口口② |①---|
口口①口 |----|
口口口口 |②---|
口口口口 |----|
47
口②②口 |①---|
口①①口 |----|
口口口口 |②---|
口口口口 |----|
48
①口口① |①---|
口口口口 |----|
②口口口 |----|
口口口口 |②---|
49
口口口口 |①---|
口口口④ |②---|
口①②③ |③---|
口口口口 |④---|
50
口口口口 |①---|
口口①口 |----|
口口口② |----|
口口口口 |②---|
51
口口口口 |①---|
④口口口 |②---|
③②①口 |③---|
口口口口 |④---|
52
口口口口 |①---|
口①口口 |----|
口口口口 |----|
口口口口 |----|
53
口口口口 |①---|
口②②口 |----|
口①①口 |②---|
口口口口 |----|
54
口①①口 |①---|
②口口口 |----|
口口口口 |----|
口口口口 |②---|
55
口口口口 |①---|
口①口口 |----|
口口口口 |----|
口口口口 |----|
56
口①①口 |①---|
口口口口 |----|
口口口口 |----|
口口口口 |----|
57
口口口口 |----|
口口口口 |----|
口口口口 |----|
口口口口 |----|
58
口口口口 |----|
口口口口 |----|
①口口口 |----|
口口口口 |①---|
59
口口口口 |①---|
口②②口 |----|
口口口① |②---|
口口口口 |----|
60
口①①口 |①---|
口口口口 |----|
口口口口 |----|
口口口口 |----|

不確定度: 0

最終更新:2016年07月27日 16:48