君の知らない物語


ADVANCED

Level: 6
BPM: 165
Notes: 329

1
口口口口 |----|
口口口口 |----|
口口口口 |----|
口口口口 |----|
2
口口口口 |①---|
③④口口 |②---|
②①口口 |③---|
口口口口 |④---|
3
口口口口 |①---|
口口④③ |②---|
口口①② |③---|
口口口口 |④---|
4
口口口口 |①---|
③④口口 |②---|
②①口口 |③---|
口口口口 |④---|
5
口口口④ |①---|
口口③口 |②---|
口口口② |③---|
口口①口 |④---|
6
口口口口 |①---|
③④口口 |②---|
②①口口 |③---|
口口口口 |④---|
7
口口口口 |①---|
口口④③ |②---|
口口①② |③---|
口口口口 |④---|
8
口口口口 |①---|
口口口口 |--②-|
口口口口
②①①②

口口口口
口口口口
③口口③ |----|
口③③口 |--③-|
9
口口口口 |----|
口口口口 |--①-|
②口口② |--②-|
①②②① |----|
10
口口口口 |①---|
口口口口 |----|
口①①口 |----|
口口口口 |----|
11
口口口口 |①---|
口口口口 |--②-|
口②②口 |----|
①③③① |③---|
12
口口口口 |①---|
口口口口 |----|
口口口口
①口口①

口口口口
口口口口
③口口③ |----|
②口口② |②-③-|
13
⑧④④⑧ |①-②-|
⑦③③⑦ |③-④-|
⑥②②⑥ |⑤-⑥-|
⑤①①⑤ |⑦-⑧-|
14
口⑤⑥口 |①-②-|
口⑦⑧口 |③-④-|
口③④口 |⑤-⑥-|
口①②口 |⑦-⑧-|
15
口⑤⑤口 |①-②-|
口口口口 |③-④-|
①口口② |--⑤-|
③口⑥④ |--⑥-|
16
⑤口口⑥ |①-②-|
⑦③④⑧ |③-④-|
口①②口 |⑤-⑥-|
口口口口 |⑦-⑧-|
17
口口口口 |①-②-|
口⑤⑤口 |③-④-|
①口口② |--⑤-|
③口口④ |----|
18
口口口口 |①---|
口口口口 |----|
①口口① |②---|
②口口② |----|
19
口③口口 |①---|
口口口口 |----|
口②②口 |②---|
口①①口 |--③-|
20
口口①口 |①---|
②口口口 |----|
口口口③ |--②-|
④口口口 |③-④-|
21
口口口口 |----|
口口口口 |----|
口口口口 |----|
口口口口 |----|
22
口口⑧口 |①-②-|
⑦⑥⑤④ |③-④-|
①②③口 |⑤-⑥-|
口口口口 |⑦-⑧-|
23
口①口口 |①-②-|
口口⑤口 |③-④-|
口③②⑥ |--⑤-|
口口④口 |--⑥-|
24
口①②口 |①-②-|
口③④口 |③-④-|
口⑤⑥口 |⑤-⑥-|
口⑦⑧口 |⑦-⑧-|
25
口口口口 |①-②-|
②口口④ |③-④-|
①口口③ |--⑤-|
口口口⑤ |----|
26
口口口口 |①---|
口口口口 |----|
口①①口 |②---|
口②②口 |----|
27
口口口口 |①---|
口口口口 |----|
②口口② |②---|
①口口① |----|
28
口口口口 |①---|
口口口口 |----|
口②②口 |②---|
口①①口 |----|
29
口口口口 |①---|
口口口口 |----|
①②②① |②---|
口口口口 |----|
30
口口口口 |①---|
口口口口 |----|
口口口口 |----|
口①①口 |----|
31
口口口口 |----|
口口口口 |----|
口口口口 |----|
①口口口 |①---|
32
口口口口 |①---|
①①④④ |②---|
口口③③ |③---|
口口②② |④---|
33
③③口口 |----|
②②口口 |①---|
①①口口 |②---|
口口口口 |③---|
34
④口口④ |①---|
③口口③ |②---|
②口口② |③---|
①口口① |④---|
35
口口口口 |----|
口②①口 |①---|
口口口口 |②---|
口①②口 |----|
36
口⑦⑥⑧ |①-②-|
口⑤④口 |③-④-|
口③②口 |⑤-⑥-|
①口口① |⑦-⑧-|
37
口⑦⑥⑧ |①-②-|
口⑤④口 |③-④-|
口③②口 |⑤-⑥-|
①口口① |⑦-⑧-|
38
口口口口 |①---|
口③③口 |----|
口口口口 |----|
①②②① |②-③-|
39
①②②① |①---|
口口口口 |②-③-|
①③③①
口口口口

⑤口口⑤
口口口口
口口口口 |--④-|
④口口④ |--⑤-|
40
口口口口 |----|
口口口口 |----|
口口口口 |----|
口①①口 |①---|
41
①③口① |①---|
口口口口 |②-③-|
②口口口
口口口口

口口⑤⑤
口口口口
口口口口 |--④-|
口口④④ |--⑤-|
42
口口口口 |----|
口口口口 |----|
口口口口 |----|
口①①口 |①---|
43
口①①口 |①---|
②③口⑤ |②-③-|
口口口口 |--④-|
口口口④ |--⑤-|
44
口口口口 |----|
口口口口 |----|
口口口口 |----|
口口口口 |----|
45
口口口口 |----|
口口口口 |----|
口①①口 |①---|
②口口② |②---|
46
①③③① |①---|
口④④口 |--②-|
口口口口 |③---|
口②②口 |--④-|
47
①②②① |①---|
④口口④ |--②-|
①③③① |③---|
⑤口口⑤ |④-⑤-|
48
①口口① |①---|
口口口口 |----|
口②②口 |----|
口口口口 |②---|
49
③口口③ |①---|
口口口口 |②-③-|
口口口口
①②②①

口口口口
口口口口
口④④口 |--④-|
⑤口口⑤ |--⑤-|
50
口①①口 |①---|
②③口口 |----|
口口口口 |----|
口口口口 |②-③-|
51
口④④口 |①---|
⑤口①⑤ |②-③-|
口口③② |--④-|
口口口口 |--⑤-|
52
口口口口 |①---|
口口口口 |----|
口②②口 |----|
①口口① |②---|
53
口口口口 |①---|
②口口③ |----|
口口口口 |----|
②①①③ |②-③-|
54
口口口口 |----|
①口口口 |----|
口口口口 |----|
①口口口 |①---|
55
口口口口 |①---|
口③③① |----|
口口口口 |----|
口②②① |②-③-|
56
①①①① |①---|
口口口口 |----|
口口口口 |----|
口口口口 |----|
57
口口口口 |----|
口口口口 |----|
口口口口 |----|
口口口口 |----|
58
口口口口 |----|
①①①① |----|
口口口口 |----|
口口口口 |①---|
59
①②②① |①---|
口⑤⑤口 |②-③-|
③③③③ |--④-|
④④④④ |--⑤-|
60
①①①① |①---|
口口口口 |----|
口口口口 |----|
口口口口 |----|

不確定度: 0

最終更新:2016年07月27日 16:47