Green Green Dance
Mutsuhiko Izumi

EXTREME

Level: 9
BPM: 165
Notes: 787

1
口③口口 |----|
口⑥⑦④ |----|
②⑤④口 |①②③④|
口口①口 |⑤⑥⑦-|
2
③⑦⑦③ |①-②-|
口⑧口⑥ |③-④-|
⑤口⑨② |⑤-⑥-|
①口口④ |⑦-⑧⑨|
3
③⑦⑦③ |①-②-|
口⑧口⑥ |③-④-|
⑤口⑨② |⑤-⑥-|
口①口④ |⑦-⑧⑨|
4
③口口③ |①-②-|
口口②口 |③-④-|
口口口口
口①口④

口⑦⑦口
口口⑧⑥
⑤⑨口口 |⑤-⑥-|
口口口口 |⑦-⑧⑨|
5
②口⑨⑤ |①-②-|
⑥⑩口口 |③-④-|
④口⑪⑦ |⑤⑥⑦⑧|
⑧⑫①③ |⑨⑩⑪⑫|
6
③⑦⑦③ |①-②-|
口⑧⑥口 |③-④-|
②⑤⑨口 |⑤-⑥-|
口口④① |⑦-⑧⑨|
7
③⑦⑦③ |①-②-|
口⑧⑨⑥ |③-④-|
⑤口口② |⑤-⑥-|
口①口④ |⑦-⑧⑨|
8
④⑤④⑤ |①-②-|
⑦⑥⑦⑥ |③---|
口①②③ |④-⑤-|
口①②③ |⑥-⑦-|
9
③口口③ |①---|
口口口口 |②---|
①③③① |③---|
口②②口 |----|
10
⑦③③⑦ |①-②-|
口⑤⑤口 |③---|
④⑥④⑥ |④-⑤-|
②①②① |⑥-⑦-|
11
口⑥⑥口 |--①-|
①口口① |②-③-|
④⑤④⑤ |④-⑤-|
②③②③ |⑥---|
12
③口口③ |①-②-|
口口口口 |③---|
口口口口
①②①②

口口口口
口⑤⑤口
⑥④⑥④ |④-⑤-|
口⑦口⑦ |⑥-⑦-|
13
⑦④④⑦ |--①-|
③⑥③⑥ |②-③-|
⑤②⑤② |④-⑤-|
①口①口 |⑥-⑦-|
14
⑦③③⑦ |①-②-|
口⑤⑤口 |③---|
④⑥④⑥ |④-⑤-|
②①②① |⑥-⑦-|
15
口⑥⑥口 |--①-|
①口口① |②-③-|
④⑤④⑤ |④-⑤-|
②③②③ |⑥---|
16
①⑦⑧① |①-②-|
②口口② |③---|
④⑥⑥⑤ |④-⑤-|
④③③⑤ |⑥-⑦⑧|
17
②口口② |①---|
③①①③ |②---|
口③③口 |③---|
口口口口 |----|
18
②①①口 |①---|
口口口口 |----|
①②口① |----|
口口口口 |--②-|
19
口口口① |①---|
⑥②③⑥ |②-③-|
⑤口①⑤ |--④-|
②④④③ |⑤-⑥-|
20
①②口① |①-②③|
口口③口 |④-⑤-|
口④口口
口口口⑤

口口口⑧
⑧口口⑦
⑦口口⑥ |--⑥-|
⑥口口口 |⑦-⑧-|
21
①口口⑧ |①-②③|
口⑦②口 |④---|
口③⑥口 |⑤-⑥⑦|
⑤口口④ |⑧---|
22
②①①口 |①---|
口口口口 |----|
①②口① |----|
口口口口 |--②-|
23
口口口① |①---|
⑥②③⑥ |②-③-|
⑤口①⑤ |--④-|
②④④③ |⑤-⑥-|
24
①口口① |①---|
口口口口 |----|
口①①口 |----|
口口口口 |----|
25
⑨口③⑨ |①②③④|
②⑦⑧口 |⑤⑥⑦⑧|
口⑥⑤④ |⑨---|
口①口口 |----|
26
⑦③③⑦ |①-②-|
口⑤⑤口 |③---|
④⑥④⑥ |④-⑤-|
②①②① |⑥-⑦-|
27
口⑥⑥口 |--①-|
①口口① |②-③-|
④⑤④⑤ |④-⑤-|
②③②③ |⑥---|
28
③口口③ |①-②-|
口口口口 |③---|
口口口口
①②①②

口口口口
口⑤⑤口
⑥④⑥④ |④-⑤-|
口⑦口⑦ |⑥-⑦-|
29
⑦④④⑦ |--①-|
③⑥③⑥ |②-③-|
⑤②⑤② |④-⑤-|
①口①口 |⑥-⑦-|
30
⑦③③⑦ |①-②-|
口⑤⑤口 |③---|
④⑥④⑥ |④-⑤-|
②①②① |⑥-⑦-|
31
口⑥⑥口 |--①-|
①口口① |②-③-|
④⑤④⑤ |④-⑤-|
②③②③ |⑥---|
32
①⑦⑧① |①-②-|
②口口② |③---|
④⑥⑥⑤ |④-⑤-|
④③③⑤ |⑥-⑦⑧|
33
②口口② |①---|
③①①③ |②---|
口③③口 |③---|
口口口口 |----|
34
①④③① |①---|
②⑥⑤口 |②-③④|
口⑧⑦口 |⑤⑥⑦⑧|
⑩口⑨口 |⑨-⑩-|
35
口口口口 |①②③④|
②⑩口① |⑤-⑥-|
④⑧⑨③ |⑦-⑧-|
口⑥⑦⑤ |⑨-⑩-|
36
口口②③ |①--②|
口口①口 |③-④-|
口口口④
口口口口

口口口口
⑨口⑩口
⑦⑧口口 |⑤⑥⑦⑧|
⑤⑥口口 |⑨-⑩-|
37
口①②口 |①-②③|
口③口口 |④-⑤-|
⑤口④口 |⑥-⑦-|
口⑥⑦⑧ |⑧---|
38
①④③① |①---|
②⑥⑤口 |②-③④|
口⑧⑦口 |⑤⑥⑦⑧|
⑩口⑨口 |⑨-⑩-|
39
口口口口 |①②③-|
②⑨口① |④-⑤-|
口⑦⑧③ |⑥-⑦-|
口⑤⑥④ |⑧-⑨-|
40
口②③④ |①---|
⑤口①⑥ |②③④-|
⑤口口⑥ |⑤-⑥-|
⑨⑧⑦口 |⑦⑧⑨-|
41
③③③③ |①---|
③①①③ |②---|
口②②口 |③---|
口口口口 |----|
42
口口口口 |①-②-|
⑧②⑥④ |③-④-|
口口口口 |⑤-⑥-|
①⑦③⑤ |⑦-⑧-|
43
⑤①②③ |①-②-|
口口口口 |③---|
口④口⑥ |④-⑤-|
口口口口 |--⑥-|
44
口口④口 |--①-|
口③口口 |②---|
①口口⑤ |③-④-|
口②⑥口 |⑤-⑥-|
45
口口口口 |①-②-|
口口口口 |③-④-|
③①口口
②④口口

口⑤口口
口口⑥口
口⑦口口 |--⑤-|
口口口口 |⑥-⑦-|
46
口口口口 |①-②-|
⑧②⑥④ |③-④-|
口口口口 |⑤-⑥-|
①⑦③⑤ |⑦-⑧-|
47
口口口口 |①②③-|
口⑤口口 |④-⑤-|
口①②③ |----|
口口④口 |----|
48
③⑤⑤③ |①-②-|
②⑥⑥② |③-④-|
①⑦⑦① |⑤-⑥-|
口⑧⑧④ |⑦-⑧-|
49
③②②③ |①---|
②口口② |②---|
①③③① |③---|
口口口口 |----|
50
口②①口 |①---②-|
①④⑤② |--③---|
⑤⑥③④ |④---⑤-|
③口口⑥ |--⑥---|
51
口②①口 |①---②-|
①口口② |--③---|
口口③口
③口口口

口口⑦口
口④⑤口
⑤⑥口④ |④---⑤-|
口口口口 |--⑥-⑦-|
52
口口口口 |①---|
②③④口 |-②③④|
口口口口 |----|
口口口① |----|
53
口①口口 |①---|
口口口口 |-②③④|
口④③② |----|
口口口口 |----|
54
⑤口口⑥ |①---②-|
③⑥⑤④ |--③---|
①④③② |④---⑤-|
口②①口 |--⑥---|
55
口①①口 |①---②-|
②口口③ |--③---|
④③②⑤ |④---⑤-|
口⑤④口 |----|
56
③口口③ |①②--|
口①②口 |----|
口口口口 |③---|
口口口口 |----|
57
口①②口 |①②----|
⑩⑨⑧⑦ |----|
③④⑤⑥ |③④⑤⑥⑦⑧|
口口口口 |⑨⑩----|
58
⑦③③⑦ |①-②-|
口⑤⑤口 |③---|
④⑥④⑥ |④-⑤-|
②①②① |⑥-⑦-|
59
口⑥⑥口 |--①-|
①口口① |②-③-|
④⑤④⑤ |④-⑤-|
②③②③ |⑥---|
60
③口口③ |①-②-|
口口口口 |③---|
口口口口
①②①②

口口口口
口⑤⑤口
⑥④⑥④ |④-⑤-|
口⑦口⑦ |⑥-⑦-|
61
⑦④④⑦ |--①-|
③⑥③⑥ |②-③-|
⑤②⑤② |④-⑤-|
①口①口 |⑥-⑦-|
62
⑦③③⑦ |①-②-|
口⑤⑤口 |③---|
④⑥④⑥ |④-⑤-|
②①②① |⑥-⑦-|
63
口⑥⑥口 |--①-|
①口口① |②-③-|
④⑤④⑤ |④-⑤-|
②③②③ |⑥---|
64
①⑦⑧① |①-②-|
②口口② |③---|
④⑥⑥⑤ |④-⑤-|
④③③⑤ |⑥-⑦⑧|
65
②口口② |①---|
③①①③ |②---|
④③③口 |③-④-|
口⑤⑥口 |⑤-⑥-|
66
口②口⑥ |①-②③|
口口③口 |④---|
⑦④⑤① |⑤-⑥-|
口口口口 |--⑦-|
67
口口口口 |①②③-|
口口口口 |④-⑤-|
口口④口
⑤①②③

口口口口
口口⑦口
口⑥口口 |--⑥⑦|
口⑧⑨口 |⑧-⑨-|
68
③口⑧④ |①-②-|
口⑦口② |③-④-|
①口⑥口 |⑤-⑥-|
口⑤口口 |⑦-⑧-|
69
口③口⑧ |①-②-|
⑦口②口 |③-④-|
①口口⑥ |⑤-⑥-|
⑤口口④ |⑦-⑧-|
70
口②①口 |----|
口③口口 |①---|
⑥口④口 |②-③④|
口⑤口口 |⑤-⑥-|
71
⑩④⑤⑨ |①②③-|
⑥口①口 |④-⑤-|
口②口⑦ |⑥⑦⑧-|
⑧口③口 |⑨-⑩-|
72
口口③口 |①-②-|
口⑤④① |③-④⑤|
②口口口
口口口口

口口口口
⑨口口⑨
口⑦⑥口 |⑥⑦⑧-|
⑩口⑧⑩ |⑨-⑩-|
73
③②②③ |①---|
⑥②②⑦ |②---|
①③③① |③---|
口④⑤口 |④⑤⑥⑦|
74
③⑥⑦③ |①---|
④③③⑤ |②---|
②口口② |③---|
①口口① |④⑤⑥⑦|
75
③口口③ |①---|
口③③口 |②---|
②②②② |③---|
①①①① |----|


不确定度: 0

タグ:

+ タグ編集
  • タグ:

このサイトはreCAPTCHAによって保護されており、Googleの プライバシーポリシー利用規約 が適用されます。

最終更新:2012年11月10日 14:15