君の知らない物語


EXTREME

Level: 8
BPM: 165
Notes: 561

1
口口口口 |----|
口口口口 |----|
口口口口 |----|
口口口口 |----|
2
①口口口 |①-②-|
③口口口 |③-④-|
⑤口②④ |⑤-⑥-|
⑦口⑥⑧ |⑦-⑧-|
3
口①口口 |①-②-|
口③口口 |③-④-|
口⑤②④ |⑤-⑥-|
口⑦⑥⑧ |⑦-⑧-|
4
①口口口 |①-②-|
③口口口 |③-④-|
⑤口②④ |⑤-⑥-|
⑦口⑥⑧ |⑦-⑧-|
5
②①口口 |①-②-|
④③口口 |③-④-|
⑥⑤②④ |⑤-⑥-|
⑧⑦⑥⑧ |⑦-⑧-|
6
①口口口 |①-②-|
③口口口 |③-④-|
⑤口②④ |⑤-⑥-|
⑦口⑥⑧ |⑦-⑧-|
7
口①口口 |①-②-|
口③口口 |③-④-|
口⑤②④ |⑤-⑥-|
口⑦⑥⑧ |⑦-⑧-|
8
①②③口 |①-②-|
口口口④ |③-④-|
⑤⑥⑦④ |--⑤-|
口口⑦口 |⑥-⑦-|
9
口口③口 |--①-|
①②③口 |②-③-|
口口口④ |--④-|
口口口④ |----|
10
⑦口口口 |①-②-|
⑤口口口 |③-④-|
③口②④ |⑤-⑥-|
①①⑥⑧ |⑦-⑧-|
11
口口口口 |①-②-|
③③口口 |--③-|
⑤⑤②③ |--④-|
①①④⑥ |⑤-⑥-|
12
①①口口 |①-②-|
③口口口 |③-④-|
口口②④
口口口口

⑧⑧口口
口口口口
⑤口口口 |⑤-⑥-|
⑦⑦⑥⑧ |⑦-⑧-|
13
口口③③ |①-②-|
②②口口 |③-④-|
④①①口
口口④口

⑦⑦口口
口口⑥⑥
口口⑧⑧ |⑤-⑥-|
⑤⑤口口 |⑦-⑧-|
14
口口口口 |①-②-|
①③⑧⑦ |③-④-|
④②口口 |⑤-⑥-|
口⑤⑥口 |⑦-⑧-|
15
①③②① |①-②-|
口④口口 |③-④-|
口口口⑥ |--⑤-|
⑤口口口 |--⑥-|
16
②③口口 |①-②-|
口④⑤口 |③-④-|
①①⑥⑦ |⑤-⑥-|
口口口⑧ |⑦-⑧-|
17
口口口⑤ |①-②-|
口口口口 |③-④-|
④①口口 |--⑤-|
③②①口 |----|
18
口③③口 |①-②-|
口口口口 |----|
口口口② |③---|
口①①口 |----|
19
③口口③ |①-②-|
口④②口 |----|
①口⑤① |③-④-|
口⑥口口 |⑤-⑥-|
20
口①①口 |①-②-|
口⑤口② |----|
④口口口 |--③-|
口③口口 |④-⑤-|
21
口③②口 |①-②-|
口口④口 |③-④-|
口口①①
口口口口

口口口口
口口口口
口⑤⑧口 |⑤-⑥-|
口⑦⑥口 |⑦-⑧-|
22
①①口口 |①-②-|
口④②口 |③-④-|
③⑤口口 |⑤-⑥-|
⑦⑥口⑧ |⑦-⑧-|
23
口口口③ |①-②-|
口口口② |③-④-|
④④①①
口口口口

⑥⑥口口
⑦口⑤口
口口口⑧ |⑤-⑥-|
口口口口 |⑦-⑧-|
24
⑤⑤口口 |①-②-|
口③⑥④ |③-④-|
⑦⑦②口 |⑤-⑥-|
①①⑧口 |⑦-⑧-|
25
口③口④ |①-②-|
口口口② |③-④-|
口口①①
口口口口

口口口口
⑤口口口
口口⑦⑧ |⑤-⑥-|
口⑥⑥口 |⑦-⑧-|
26
口⑤⑥口 |①-②-|
④口③④ |③---|
口②口口 |④-⑤-|
①口口① |⑥---|
27
④口口④ |①-②-|
口⑤⑥口 |③---|
口②③口 |④-⑤-|
①口口① |⑥---|
28
④口口④ |①-②-|
口⑤⑥口 |③---|
①口口① |④-⑤-|
口②③口 |⑥---|
29
④口口④ |①-②-|
口⑤⑥口 |③---|
口②③口 |④-⑤-|
①口口① |⑥---|
30
⑤口④⑥ |①-②-|
⑦口口⑧ |③-④-|
口③②口 |⑤-⑥-|
①口口① |⑦-⑧-|
31
⑦⑦⑧口 |①-②-|
口⑤⑥口 |③-④-|
口③④口 |⑤-⑥-|
口①②口 |⑦-⑧-|
32
口口口口 |①---|
②②口口 |②-③-|
口口③口
①①口口

④④口口
口口口口
口口口⑥ |④---|
⑤⑤口口 |⑤-⑥-|
33
⑤⑤口口 |----|
③③⑥口 |①-②-|
①①④口 |③-④-|
口口②口 |⑤-⑥-|
34
⑦⑦⑧⑦ |①-②-|
⑤⑤⑥⑤ |③-④-|
③③④③ |⑤-⑥-|
①①②① |⑦-⑧-|
35
口口口⑦ |--①-|
④④口⑥ |②-③-|
口②③⑤ |④-⑤-|
口①①口 |⑥-⑦-|
36
口①①口 |①-②-|
口口②口 |③-④-|
口③口口
口口④口

口口⑧口
口⑦口口
口口⑥口 |⑤-⑥-|
口⑤口口 |⑦-⑧-|
37
①①口⑧ |①-②-|
⑦口口② |③-④-|
③口口⑥ |⑤-⑥-|
⑤⑤口④ |⑦-⑧-|
38
口①①口 |①-②-|
口口③③ |③---|
口口口口
口口②②

口口⑥⑥
口口口口
⑦⑦⑤⑤ |④-⑤-|
④④口口 |⑥-⑦-|
39
①①口口 |①---|
口口口口 |----|
口口口口 |----|
口口口口 |----|
40
⑦⑦口⑥ |①-②-|
口③②口 |③-④-|
口①④口 |⑤-⑥-|
⑤口口⑧ |⑦-⑧-|
41
口口口口 |①-②-|
①①口口 |③-④-|
④④口②
③③口口

⑤⑤口口
⑥⑥口口
口口口口 |--⑤-|
口口口口 |--⑥-|
42
口⑧口口 |①-②-|
⑦⑦口口 |③-④-|
④口⑥② |⑤-⑥-|
③口⑤① |⑦-⑧-|
43
④口口口 |①-②-|
口口口口 |③-④-|
③③口②
①①口口

口口口口
⑤⑤口口
口口口口 |--⑤-|
⑥⑥口口 |--⑥-|
44
口③④口 |①-②-|
⑤口口⑥ |③-④-|
口①②口 |⑤-⑥-|
⑦口口⑧ |⑦-⑧-|
45
④口口④ |①-②-|
口③③口 |③---|
口②②口 |④---|
⑤①①⑤ |⑤---|
46
口①①口 |①-②-|
口①①③ |③-④-|
口口口②
口④④口

⑤口口⑤
⑧⑧口口
⑥口⑦口 |⑤-⑥-|
口口口⑦ |⑦-⑧-|
47
口①口口 |①---|
口口口口 |--②-|
口①口口
口②口口

③⑦⑧口
口⑨⑩口
③口⑤④ |③④⑤⑥|
口口⑥口 |⑦⑧⑨⑩|
48
⑤⑤⑤⑤ |①---|
口口口② |②---|
口口口④ |③-④-|
①口③① |⑤---|
49
口口口口 |①---|
口口②② |②-③-|
①①口口
③③口口

⑤⑤口⑥
⑦口口口
口⑦口④ |④-⑤-|
口口口口 |⑥-⑦-|
50
口口口口 |①---|
口①口口 |②---|
①口②口
口口口②

口口③口
口口口③
⑤⑤口④ |③---|
④④④口 |④-⑤-|
51
③③口口 |①-②-|
①①④④ |③-④-|
口口②口
口口口口

口口口口
⑧⑧口口
口口口⑦ |⑤-⑥-|
⑥⑥口⑤ |⑦-⑧-|
52
口口②② |①-②-|
⑤口③③ |--③-|
①①①④ |④-⑤-|
⑥⑥①④ |⑥---|
53
①①③③ |①-②-|
⑦⑦口④ |③---|
口口②⑤ |④-⑤-|
⑥⑥口口 |⑥-⑦-|
54
口③①① |①-②-|
口口④口 |③-④-|
⑤⑤②口 |⑤-⑥-|
⑦⑦口⑥ |⑦---|
55
①①口口 |①-②-|
口口③② |③-④-|
口口口④
口口口口

⑧⑧口口
口口口口
口⑤口口 |⑤-⑥-|
⑦⑦⑥口 |⑦-⑧-|
56
口口口② |①-②-|
①⑤④⑧ |③-④-|
①③口口 |⑤-⑥-|
⑦⑤口⑥ |⑦-⑧-|
57
①口②口 |①-②-|
⑦③口⑧ |③-④-|
①⑤口④ |⑤-⑥-|
口⑤⑥口 |⑦-⑧-|
58
①①口④ |①-②-|
⑤⑤⑥口 |③-④-|
⑦⑦②口 |⑤-⑥-|
③③口⑧ |⑦-⑧-|
59
①①口口 |①---|
口③③③ |②-③-|
口口口口
口②口口

⑤口口口
口口口口
口④④④ |--④-|
口口口口 |--⑤-|
60
口口①① |①---|
口口口口 |----|
口口口口 |----|
口口口口 |----|

不確定度: 0

最終更新:2016年07月27日 16:47