衝動
HaKU

BASIC

Level: 2
BPM: 143
Notes: 202

1
口口口口 |----|
口口口口 |----|
口口口口 |----|
口口口口 |----|
2
口口口口 |①---|
①②口口 |----|
口口口口 |②---|
口口口口 |----|
3
口口口口 |①---|
口口①② |----|
口口口口 |②---|
口口口口 |----|
4
口口口口 |①---|
口口口口 |----|
口①①口 |----|
口口口口 |----|
5
口口口口 |①---|
口口口口 |----|
口口口口 |②---|
②②①① |----|
6
口口口口 |①---|
口口②① |----|
口口口口 |②---|
口口口口 |----|
7
口口口口 |①---|
②①口口 |----|
口口口口 |②---|
口口口口 |----|
8
口口口口 |①---|
口口口口 |----|
口①①口 |----|
口口口口 |----|
9
口口口口 |①---|
口①①口 |----|
口①①口 |----|
口口口口 |----|
10
口口口口 |①---|
口口口口 |②---|
④口口口 |③---|
④③②① |④---|
11
口口口口 |①---|
④口口口 |②---|
④③②① |③---|
口口口口 |④---|
12
④口口口 |①---|
④③②① |②---|
口口口口 |③---|
口口口口 |④---|
13
④③②① |①---|
④口口口 |②---|
口口口口 |③---|
口口口口 |④---|
14
口口口口 |①---|
④③②① |②---|
④口口口 |③---|
口口口口 |④---|
15
口口口口 |①---|
口口口口 |②---|
④③②① |③---|
④口口口 |④---|
16
口口口口 |①---|
口口口口 |②---|
④口口口 |③---|
④③②① |④---|
17
口口口口 |①---|
④口口口 |②---|
④③②① |③---|
口口口口 |④---|
18
口口口口 |①---|
口口口② |----|
口口口① |②---|
口口口口 |----|
19
口口口① |①---|
口②②口 |----|
口口口口 |②---|
口口口口 |----|
20
口口口口 |①---|
口口口口 |②---|
口口口④ |③---|
①②③④ |④---|
21
口口口口 |①---|
口口口④ |②---|
①②③④ |③---|
口口口口 |④---|
22
口口口口 |①---|
②口口口 |----|
①口口口 |②---|
口口口口 |----|
23
①口口口 |①---|
口②②口 |----|
口口口口 |②---|
口口口口 |----|
24
口口口口 |①---|
口口口口 |②---|
④口口口 |③---|
④③②① |④---|
25
口口口口 |①---|
④口口口 |②---|
④③②① |③---|
口口口口 |④---|
26
口口口口 |①---|
口口口② |----|
口口口① |②---|
口口口口 |----|
27
口口②① |①---|
口口口口 |----|
口口口口 |②---|
口口口口 |----|
28
②①口口 |①---|
口口口口 |----|
口口口口 |②---|
口口口口 |----|
29
口口口口 |①---|
①口口口 |----|
②口口口 |②---|
口口口口 |----|
30
口口口口 |①---|
口口口口 |----|
口口口口 |②---|
口②①口 |----|
31
口口口口 |①---|
口口口口 |----|
口②①口 |②---|
口口口口 |----|
32
口口口口 |①---|
口②①口 |----|
口口口口 |②---|
口口口口 |----|
33
口②①口 |①---|
口口口口 |----|
口口口口 |②---|
口口口口 |----|
34
口口口口 |①---|
口③②① |②---|
口口口口 |③---|
口口口口 |----|
35
口口口口 |①---|
①②③口 |②---|
口口口口 |③---|
口口口口 |----|
36
口口口口 |①---|
口口口口 |----|
口①①口 |----|
口①①口 |----|
37
口口口口 |①---|
口口口口 |----|
口口口口 |②---|
②②①① |----|
38
口口口口 |①---|
口③②① |②---|
口口口口 |③---|
口口口口 |----|
39
口口口口 |①---|
①②③口 |②---|
口口口口 |③---|
口口口口 |----|
40
口口口口 |①---|
口口口口 |----|
口①①口 |----|
口①①口 |----|
41
口口口口 |①---|
②口口② |----|
①口口① |②---|
口口口口 |----|
42
口口③口 |①---|
口口②口 |②---|
口口①口 |③---|
口口口口 |----|
43
口①口口 |①---|
口②口口 |②---|
口③口口 |③---|
口④口口 |④---|
44
口口③口 |①---|
口口②口 |②---|
口口①口 |③---|
口口口口 |----|
45
口①口口 |①---|
口②口口 |②---|
口③口口 |③---|
口④口口 |④---|
46
口口口口 |①---|
口③②① |②---|
口口口口 |③---|
口口口口 |----|
47
口口口口 |①---|
①②③口 |②---|
口口口口 |③---|
口口口口 |----|
48
口口口口 |①---|
口口口口 |----|
②①①② |②---|
口①①口 |----|
49
口口口口 |①---|
口口口口 |----|
口①①口 |----|
口①①口 |----|
50
口口口口 |①---|
口口口口 |②---|
④口口口 |③---|
④③②① |④---|
51
口口口口 |①---|
④口口口 |②---|
④③②① |③---|
口口口口 |④---|
52
④口口口 |①---|
④③②① |②---|
口口口口 |③---|
口口口口 |④---|
53
④③②① |①---|
④口口口 |②---|
口口口口 |③---|
口口口口 |④---|
54
口口口口 |①---|
口口口口 |②---|
口④③口 |③---|
口②①口 |④---|
55
口④③口 |①---|
口②①口 |②---|
口口口口 |③---|
口口口口 |④---|
56
②口口① |①---|
④口口③ |②---|
口口口口 |③---|
口口口口 |④---|
57
口口口口 |①---|
口口口口 |②---|
②口口① |③---|
④口口③ |④---|
58
口口口口 |①---|
口口口口 |----|
口①①口 |----|
口口口口 |----|

不確定度: 0

最終更新:2016年07月27日 16:45