衝動
HaKU

ADVANCED

Level: 5
BPM: 143
Notes: 346

1
口口口口 |----|
口口口口 |----|
口口口口 |----|
口口口口 |----|
2
口口口口 |①-②-|
口口⑦⑥ |③-④-|
⑤口口口 |⑤---|
①②③④ |⑥-⑦-|
3
⑦⑦口③ |①-②-|
②①口口 |③---|
口口⑥口 |④-⑤-|
口⑤④口 |⑥-⑦-|
4
口口①① |--①-|
口口口口 |----|
口口口口 |----|
口口口口 |----|
5
④口口③ |①---|
④②①③ |②---|
口①②口 |③-④-|
口口口口 |----|
6
口口口口 |①-②-|
口口⑦⑥ |③-④-|
⑤口口口 |⑤---|
①②③④ |⑥-⑦-|
7
⑦⑦口③ |①-②-|
②①口口 |③---|
口口⑥口 |④-⑤-|
口⑤④口 |⑥-⑦-|
8
口口①① |--①-|
口口口口 |----|
口口口口 |----|
口口口口 |----|
9
⑤口口⑤ |①-②-|
⑥④③⑥ |③-④-|
口②①口 |--⑤-|
口口口口 |⑥---|
10
口口④口 |①---|
口③口口 |②---|
口口②口 |③---|
口①口口 |④---|
11
口①口口 |①---|
口口②口 |②---|
口③口口 |③---|
口口④口 |④---|
12
口口口④ |①---|
③口口口 |②---|
口口口② |③---|
①口口口 |④---|
13
①口口口 |①---|
口口口② |②---|
③口口口 |③---|
口口口④ |④---|
14
口口④口 |①---|
口③口口 |②---|
口口②口 |③---|
口①口口 |④---|
15
口①口口 |①---|
口口②口 |②---|
口③口口 |③---|
口口④口 |④---|
16
口口口④ |①---|
③口口口 |②---|
口口口② |③---|
①口口口 |④---|
17
①口口口 |①---|
口口口② |②---|
③口口口 |③---|
口口口④ |④---|
18
口口口口 |①-②-|
①②③④ |③-④-|
⑤⑦口口 |⑤--⑥|
口口⑥口 |--⑦-|
19
⑥④⑤口 |①-②-|
口②③口 |③-④-|
口口①口 |⑤-⑥-|
⑦口口⑦ |⑦---|
20
口口④口 |①---|
口③口口 |②---|
口口②口 |③---|
口①口口 |④---|
21
口①口口 |①---|
口口②口 |②---|
口③口口 |③---|
口口④口 |④---|
22
①口⑦⑤ |①-②-|
②口口口 |③-④-|
③⑥口口 |⑤--⑥|
④口口口 |--⑦-|
23
口①口口 |①-②-|
⑦③②⑦ |③-④-|
口⑤④口 |⑤-⑥-|
口口⑥口 |⑦---|
24
口口④口 |①---|
口③口口 |②---|
口口②口 |③---|
口①口口 |④---|
25
口①口口 |①---|
口口②口 |②---|
口③口口 |③---|
口口④口 |④---|
26
口口口口 |①-②-|
④③②① |③-④-|
⑧口口⑤ |⑤-⑥⑦|
口⑥⑦口 |--⑧-|
27
口口口⑤ |①-②-|
④⑥口口 |③-④-|
口①②③ |⑤--⑥|
口口口⑦ |--⑦-|
28
口口口⑧ |①-②-|
⑤口口口 |③-④-|
口⑦⑥④ |⑤-⑥⑦|
③②①口 |--⑧-|
29
③②①口 |①-②-|
口口口④ |③-④-|
口⑦口口 |⑤-⑥-|
口⑤⑥口 |⑦---|
30
④③②① |①-②-|
⑧口口⑤ |③-④-|
口⑥⑦口 |⑤-⑥⑦|
口口口口 |--⑧-|
31
口口口口 |①-②-|
口①②③ |③-④-|
④口口口
口口口口

口口口口
口口口⑦
口⑥口口 |⑤--⑥|
口口口⑤ |--⑦-|
32
口口口口 |①-②-|
③②①口 |③-④-|
⑤⑦口④ |⑤--⑥|
口口⑥口 |--⑦-|
33
口④⑤口 |①-②-|
口②③口 |③-④-|
口口①口 |⑤---|
口口口口 |----|
34
②口口① |①-②-|
④口口③ |③-④-|
口口口口 |⑤---|
⑥⑤⑤⑦ |⑥-⑦-|
35
⑦③③口 |①-②-|
⑦口④口 |③---|
①⑤口② |④-⑤-|
口口⑥口 |⑥-⑦-|
36
口口口① |--①-|
口口口① |----|
口口口口 |----|
口口口口 |----|
37
④口口③ |①---|
④②①③ |②---|
口①②口 |③-④-|
口口口口 |----|
38
⑥⑤⑤⑦ |①-②-|
口口口口 |③-④-|
④口口③ |⑤---|
②口口① |⑥-⑦-|
39
⑦⑦⑥口 |①-②-|
①⑤口② |③---|
口口④口 |④-⑤-|
口③③口 |⑥-⑦-|
40
口口口口 |--①-|
口口口口 |----|
口口①① |----|
口口口口 |----|
41
⑤⑤⑥⑥ |①-②-|
①②③④ |③-④-|
口口口口 |--⑤-|
口口口口 |⑥---|
42
②②②② |----|
口口口口 |①---|
口口口口 |②---|
③①①口 |--③-|
43
口口口口 |①-②-|
口口口口 |③-④-|
⑦①⑤③ |⑤-⑥-|
口⑥②④ |⑦---|
44
口口口口 |----|
口口口口 |①---|
口口口口
口①①口

②②②②
口口口口
口口口口 |②---|
口③口口 |--③-|
45
⑥⑥⑤⑤ |①-②-|
口②①口 |③-④-|
口④③口 |⑤---|
口口口口 |⑥---|
46
⑥⑤⑤⑦ |①-②-|
口口口口 |③-④-|
④口口③ |⑤---|
②口口① |⑥-⑦-|
47
⑦⑦⑥口 |①-②-|
①⑤口② |③---|
口口④口 |④-⑤-|
口③③口 |⑥-⑦-|
48
⑤口口口 |--①-|
⑤口②口 |----|
口③①① |②-③-|
口口④口 |④-⑤-|
49
口口口① |--①-|
口口口① |----|
口口口口 |----|
口口口口 |----|
50
口口④口 |①---|
口③口口 |②---|
口口②口 |③---|
口①口口 |④---|
51
口①口口 |①---|
口口②口 |②---|
口③口口 |③---|
口口④口 |④---|
52
口口口④ |①---|
③口口口 |②---|
口口口② |③---|
①口口口 |④---|
53
①口口口 |①---|
口口口② |②---|
③口口口 |③---|
口口口④ |④---|
54
口④④口 |①---|
口③③口 |②---|
口②②口 |③---|
口①①口 |④---|
55
①口口① |①---|
②口口② |②---|
③口口③ |③---|
④口口④ |④---|
56
口④④口 |①---|
口③③口 |②---|
口②②口 |③---|
口①①口 |④---|
57
①口口① |①---|
②口口② |②---|
③口口③ |③---|
④口口④ |④---|
58
口口口口 |①---|
口①①口 |----|
口①①口 |----|
口口口口 |----|

不確定度: 0

最終更新:2016年07月27日 16:45