衝動
HaKU

EXTREME

Level: 9
BPM: 143
Notes: 657

1
口口口口 |----|
口口口口 |----|
口口口口 |----|
口口口口 |----|
2
口口口口 |①-②-|
④口口口 |③-④-|
口③②口
口口口①

口口口⑤
口口口口
口⑦口口 |⑤---|
⑥口口口 |⑥-⑦-|
3
③口口口 |①-②-|
口⑤④② |③---|
口口①口 |④-⑤-|
口⑦⑥口 |⑥-⑦-|
4
口口口口 |--①-|
口口口口 |----|
口口①口 |----|
口口口口 |----|
5
口①①① |①---|
②②②口 |②---|
③口③口 |③-④-|
口④口④ |----|
6
口口口口 |①-②-|
口口口④ |③-④-|
口②③口
①口口口

⑤口口口
口口口口
口口⑦口 |⑤---|
口口口⑥ |⑥-⑦-|
7
口口口③ |①-②-|
②④⑤口 |③---|
口①口口 |④-⑤-|
口⑥⑦口 |⑥-⑦-|
8
口口口口 |--①-|
口口口口 |----|
口①口口 |----|
口口口口 |----|
9
口④④① |①-②-|
④口②④ |③-④-|
口②口口
①③③口

口口口⑥
口口口口
口口口口 |--⑤-|
⑤口口口 |⑥---|
10
①⑦⑥口 |①②③④|
⑩②⑨⑥ |-⑤-⑥|
⑤⑫③⑪ |-⑦-⑧|
⑧⑤⑦④ |⑨⑩⑪⑫|
11
①⑦⑤口 |①②③④|
⑩②⑨⑤ |-⑤-⑥|
⑥⑫③⑪ |-⑦-⑧|
⑧⑥⑦④ |⑨⑩⑪⑫|
12
①⑦⑥口 |①②③④|
⑩②⑨⑥ |-⑤-⑥|
⑤⑫③⑪ |-⑦-⑧|
⑧⑤⑦④ |⑨⑩⑪⑫|
13
①⑦⑤口 |①②③④|
⑩②⑨⑤ |-⑤-⑥|
⑥⑫③⑪ |-⑦-⑧|
⑧⑥⑦④ |⑨⑩⑪⑫|
14
①⑦⑥口 |①②③④|
⑩②⑨⑥ |-⑤-⑥|
⑤⑫③⑪ |-⑦-⑧|
⑧⑤⑦④ |⑨⑩⑪⑫|
15
①⑦⑤口 |①②③④|
⑩②⑨⑤ |-⑤-⑥|
⑥⑫③⑪ |-⑦-⑧|
⑧⑥⑦④ |⑨⑩⑪⑫|
16
①⑦⑥口 |①②③④|
⑩②⑨⑥ |-⑤-⑥|
⑤⑫③⑪ |-⑦-⑧|
⑧⑤⑦④ |⑨⑩⑪⑫|
17
①⑦⑤口 |①②③④|
⑩②⑨⑤ |-⑤-⑥|
⑥⑫③⑪ |-⑦-⑧|
⑧⑥⑦④ |⑨⑩⑪⑫|
18
口口④① |①-②-|
口口口③ |③-④-|
口口口口
口口口②

口口口口
口口口口
口口⑥口 |⑤--⑥|
口口⑤⑦ |--⑦-|
19
⑦⑦③① |①-②-|
⑦⑦口⑤ |③-④-|
口口口② |⑤-⑥-|
口口④⑥ |⑦---|
20
口⑥⑦① |①②③④|
⑥⑨②⑩ |-⑤-⑥|
⑪③⑫⑤ |-⑦-⑧|
④⑦⑤⑧ |⑨⑩⑪⑫|
21
口⑤⑦① |①②③④|
⑤⑨②⑩ |-⑤-⑥|
⑪③⑫⑥ |-⑦-⑧|
④⑦⑥⑧ |⑨⑩⑪⑫|
22
①②口口 |①-②-|
③④口口 |③-④-|
⑤口口口 |⑤--⑥|
⑦⑥口口 |--⑦-|
23
口①⑦⑦ |①-②-|
③④⑦⑦ |③-④-|
口②口口 |⑤-⑥-|
⑤⑥口口 |⑦---|
24
①⑦⑥口 |①②③④|
⑩②⑨⑥ |-⑤-⑥|
⑤⑫③⑪ |-⑦-⑧|
⑧⑤⑦④ |⑨⑩⑪⑫|
25
①⑦⑤口 |①②③④|
⑩②⑨⑤ |-⑤-⑥|
⑥⑫③⑪ |-⑦-⑧|
⑧⑥⑦④ |⑨⑩⑪⑫|
26
②口口① |①-②-|
口口口口 |③-④-|
口口口口
④口口③

口⑥⑥口
口⑦⑦口
口口⑤口 |⑤-⑥⑦|
口口口⑧ |--⑧-|
27
③口口① |①-②-|
③口口① |③-④-|
口口口口
②口④口

口⑤⑤口
口口口口
口⑥⑥口 |⑤--⑥|
⑦口口口 |--⑦-|
28
口⑥⑥口 |①-②-|
③⑦⑦① |③-④-|
口⑤口口 |⑤-⑥⑦|
⑧口④② |--⑧-|
29
口口口口 |①-②-|
口口口口 |③-④-|
①④③口
口①②③

⑤口口⑤
⑥口口⑥
⑦口口⑦ |⑤-⑥-|
口口口口 |⑦---|
30
口口口口 |①---|
③①①② |②-③-|
口①①口
口口口口

口⑤⑤口
口⑥⑥口
口口口口 |④-⑤⑥|
⑦口④口 |--⑦-|
31
③⑤⑤① |①-②-|
口口口口 |③-④-|
③⑥⑥① |⑤--⑥|
⑦④口② |--⑦-|
32
口⑤⑤⑦ |①-②-|
④②③① |③-④-|
口⑥⑥口 |⑤--⑥|
口口口口 |--⑦-|
33
口口口口 |①-②-|
口口口口 |③-④-|
口口口⑤ |⑤---|
①②③④ |----|
34
①①①① |①-②-|
口口④③ |③-④-|
口口口③
口②口口

⑦⑦口口
口⑤口口
⑤⑧口口 |⑤-⑥-|
口口口⑥ |⑦-⑧-|
35
口口①② |①-②-|
口口②① |③-④-|
口口口④
③③口口

⑦⑧⑦⑧
口⑧口⑧
⑥⑤⑥口 |⑤-⑥-|
口口口⑤ |⑦-⑧-|
36
口口口口 |--①-|
①口①口 |②---|
口口口口
②①口①

口口口口
口口口口
口口口口 |③---|
口④③口 |④---|
37
①口口② |①---|
③⑧⑦③ |②---|
口⑥⑤口 |③-④-|
②④④① |⑤⑥⑦⑧|
38
①①①① |①-②-|
口口口口 |③-④-|
③口④口
口③口②

口口⑦⑦
口口⑧⑤
口口口⑤ |⑤-⑥-|
⑥口口口 |⑦-⑧-|
39
②①口口 |①-②-|
①②口口 |③-④-|
④口口口
口口③③

口⑦口⑦
口口口口
口⑥⑤⑥ |⑤-⑥-|
⑤⑧⑧⑧ |⑦-⑧-|
40
②④③口 |--①-|
①①①口 |②---|
口口口口 |③---|
口口口口 |④---|
41
⑥口⑨⑬ |①-②-|
⑩⑫⑦③ |③④⑤⑥|
⑧④口⑪ |⑦⑧⑨⑩|
②⑭⑤① |⑪⑫⑬⑭|
42
口口口口 |①---|
口口口口 |②---|
口②②口
口口①①

③③③③
③口⑤③
口口口口 |③---|
口口④口 |④-⑤-|
43
口⑦⑦口 |①-②-|
⑥⑤⑤⑥ |③-④-|
口②④口 |⑤-⑥-|
①口口③ |⑦---|
44
③③③③ |①---|
③口口③ |②---|
④②②口 |③---|
口①①口 |--④-|
45
口口口口 |①-②-|
⑥①⑤③ |③-④-|
口④②口 |⑤---|
⑥①⑤③ |⑥---|
46
④②③① |①-②-|
⑥口⑦口 |③-④-|
⑤⑤⑤⑤ |⑤---|
口口口口 |⑥-⑦-|
47
口口口口 |①-②-|
口①口② |③---|
口口口口
③③③③

口④口④
⑤口⑤口
口⑥口⑥ |④-⑤-|
⑦口⑦口 |⑥-⑦-|
48
①口①口 |--①-|
口①口① |----|
口口口口
口口口口

④⑤④⑤
口⑤口⑤
③②③口 |②-③-|
口口口② |④-⑤-|
49
口口口口 |--①-|
①口①口 |②---|
口②③④ |③---|
口①口① |④---|
50
①⑦⑥口 |①②③④|
⑩②⑨⑥ |-⑤-⑥|
⑤⑫③⑪ |-⑦-⑧|
⑧⑤⑦④ |⑨⑩⑪⑫|
51
①⑦⑤口 |①②③④|
⑩②⑨⑤ |-⑤-⑥|
⑥⑫③⑪ |-⑦-⑧|
⑧⑥⑦④ |⑨⑩⑪⑫|
52
①⑦⑥口 |①②③④|
⑩②⑨⑥ |-⑤-⑥|
⑤⑫③⑪ |-⑦-⑧|
⑧⑤⑦④ |⑨⑩⑪⑫|
53
①⑦⑤口 |①②③④|
⑩②⑨⑤ |-⑤-⑥|
⑥⑫③⑪ |-⑦-⑧|
⑧⑥⑦④ |⑨⑩⑪⑫|
54
②⑥①⑤ |①②③④|
口口口口 |-⑤-⑥|
⑥口⑤口
口④口③

口口口口
口⑦⑦⑧
口口口口 |-⑦-⑧|
⑨⑩⑪⑫ |⑨⑩⑪⑫|
55
①③②③ |①-②③|
①⑤口口 |-④-⑤|
口④口④
⑤口口口

⑧⑨⑩⑪
口口⑥⑦
口口口口 |-⑥-⑦|
口口口⑥ |⑧⑨⑩⑪|
56
口口口口 |①②③④|
⑤⑤⑥⑥ |-⑤-⑥|
口③④口
口①②口

口⑦⑦口
口口口口
⑧口口口 |-⑦-⑧|
⑫⑪⑩⑨ |⑨⑩⑪⑫|
57
⑥口口⑥ |①②③④|
口④③口 |-⑤-⑥|
⑤②①⑤
口口口口

口⑦⑦口
⑦⑩⑨⑦
口⑫⑪口 |-⑦-⑧|
⑧口口口 |⑨⑩⑪⑫|

不確定度: 0

最終更新:2016年07月27日 16:44