変じゃない!!
good-cool ft. すわひでお

EXTREME

Level: 8
BPM: 116
Notes: 623

1
口口口口 |----|
口口口口 |----|
口口口口 |----|
口口口口 |----|
2
②口口② |①-②-|
口口口口 |----|
③①①③ |----|
口口口口 |③---|
3
口口口口 |①---|
②①①② |----|
口口口口 |----|
口口口口 |②---|
4
②口口② |①-②-|
口口口口 |----|
口①①口 |----|
口口口口 |----|
5
口④④口 |①---|
③口口③ |----|
口②②口 |--②-|
口①①口 |③-④-|
6
①口口① |①-②③|
⑤⑧④⑨ |④⑤--|
⑥③⑦② |⑥⑦⑧⑨|
口⑪口⑩ |--⑩⑪|
7
②⑤①⑥ |①②--|
口口口口 |③④⑤⑥|
口口口口
③口④口

口口⑧口
⑦口口口
⑦⑧口⑧ |⑦---|
口口口口 |⑧---|
8
①口口① |①-②③|
⑨④⑧⑤ |④⑤--|
②⑦③⑥ |⑥⑦⑧⑨|
⑩口⑪口 |--⑩⑪|
9
⑥①⑤② |①②--|
口口口口 |③④⑤⑥|
口口口口
口④口③

口⑨口口
口⑧口⑦
⑨口⑨⑦ |⑦-⑧-|
口口口口 |⑨---|
10
①口口① |①-②③|
⑤⑧④⑨ |④⑤--|
⑥③⑦② |⑥⑦⑧⑨|
口⑪口⑩ |--⑩⑪|
11
②⑤①⑥ |①②--|
口口口口 |③④⑤⑥|
口口口口
③口④口

口口⑧口
⑦口口口
⑦⑧口⑧ |⑦---|
口口口口 |⑧---|
12
①口口① |①-②③|
⑨④⑧⑤ |④⑤--|
②⑦③⑥ |⑥⑦⑧⑨|
⑩口⑪口 |--⑩⑪|
13
⑥①⑤② |①②--|
口口口口 |③④⑤⑥|
口口口口
口④口③

口⑨口口
口⑧口⑦
⑨口⑨⑦ |⑦-⑧-|
口口口口 |⑨---|
14
⑦口②① |①②③④|
③④口⑥ |⑤⑥-⑦|
口口口⑤
口口口口

口⑧⑨口
⑩口⑪口
口⑫口⑬ |⑧⑨⑩⑪|
口口口口 |⑫⑬--|
15
口⑭⑬⑫ |①②③④|
⑨⑩⑪口 |⑤⑥⑦⑧|
②⑥④⑧ |⑨⑩⑪⑫|
①⑤③⑦ |⑬⑭--|
16
口口口⑤ |①-②③|
④口⑤口 |④-⑤-|
①④③口
口①②口

⑪⑦⑥口
口⑪口⑩
口口⑩口 |⑥⑦⑧⑨|
口⑨⑧口 |⑩-⑪-|
17
口③②① |-①②③|
口口⑤口 |④⑤-⑥|
口⑥④口
口口口口

⑧⑩口⑨
口⑦口口
口口口口 |⑦-⑧-|
⑨口⑩⑧ |⑨-⑩-|
18
口口⑥口 |①②③④|
口③②⑧ |⑤⑥⑦⑧|
①⑦口口
口⑤口④

⑨口口口
口⑮⑫口
⑪口口⑭ |⑨⑩⑪⑫|
口⑬⑩口 |-⑬⑭⑮|
19
④③②① |①②③④|
⑬口口⑥ |⑤-⑥⑦|
⑫⑤⑤⑦ |⑧⑨⑩⑪|
⑧⑨⑩⑪ |⑫⑬--|
20
口⑦口口 |①②③④|
⑦①⑥③ |⑤⑥-⑦|
口②⑤④
口口口口

⑮口⑭口
口⑪口⑩
⑬口⑫口 |⑧⑨⑩⑪|
口⑨口⑧ |⑫⑬⑭⑮|
21
⑧口口④ |①②③④|
口⑦③口 |⑤⑥⑦⑧|
口②⑥口
⑤口口①

口⑪⑩口
⑪口⑫⑩
⑫⑩口⑨ |⑨-⑩-|
口⑫⑨口 |⑪-⑫-|
22
⑥②②⑥ |①---|
口口③口 |②---|
口口④口 |③-④-|
口⑤⑤① |⑤-⑥-|
23
口口口口 |--①-|
口口口口 |②---|
口口①口
口②口口

口④口口
④③口口
口口③④ |--③-|
口口④口 |④---|
24
①口⑤③ |①-②-|
口⑥口口 |③-④-|
口口⑦口 |⑤-⑥-|
④⑧⑧② |⑦-⑧-|
25
⑥②①⑦ |--①-|
②⑤⑦① |②---|
口口④口 |③④⑤⑥|
口口口③ |⑦---|
26
口②③口 |①--②|
口④口⑧ |③-④-|
⑤口⑦口 |⑤-⑥-|
①⑥口① |⑦-⑧-|
27
口②口② |①-②-|
口口口口 |③---|
口③口③
①口①口

口⑤口口
⑤④⑥口
口⑦④⑤ |--④-|
口口⑤口 |⑤-⑥⑦|
28
口③②口 |①--②|
⑧口④口 |③-④-|
口⑦口⑤ |⑤-⑥-|
①口⑥口 |⑦-⑧-|
29
③③③③ |①-②③|
口②②口 |----|
口口口口
①口口①

口口口口
⑤口口④
口⑤④口 |④---|
⑤口口④ |⑤---|
30
口口口① |①-②-|
口③口③ |③-④-|
口口④口
口口②口

⑨口口⑦
⑤⑧⑥口
口口口⑦ |⑤-⑥-|
⑤口口口 |⑦-⑧⑨|
31
口①③口 |--①-|
②④口口 |②③-④|
口①③口
口口口口

⑥⑧口⑤
口口⑦口
⑧⑥口⑤ |⑤---|
口口口⑦ |⑥⑦⑧-|
32
口口口① |①-②-|
口③口③ |③-④-|
口口④口
口口②口

⑨口口⑦
⑤⑧⑥口
口口口⑦ |⑤-⑥-|
⑤口口口 |⑦-⑧⑨|
33
口①③口 |--①-|
②④口口 |②③-④|
口①③口
口口口口

口⑥口⑤
口口⑥口
口⑥口⑤ |⑤---|
口口⑥口 |⑥---|
34
①口口口 |①-②-|
③口③口 |③-④-|
口④口口
口②口口

⑦口口⑨
口⑥⑧⑤
⑦口口口 |⑤-⑥-|
口口口⑤ |⑦-⑧⑨|
35
口③①口 |--①-|
口口④② |②③-④|
口③①口
口④②口

⑤口⑧⑥
口⑦口口
⑤口⑥⑧ |⑤---|
⑦口口口 |⑥⑦⑧-|
36
①口口口 |①-②-|
③口③口 |③-④-|
口④口口
口②口口

⑥口口⑧
口口⑦⑤
⑥口口口 |⑤---|
口口口⑤ |⑥-⑦⑧|
37
口③①口 |--①-|
口口④② |②③-④|
口③①口
口④②口

⑤口口⑥
口⑥口口
⑤口⑥口 |⑤---|
⑥口口口 |⑥---|
38
②口①口 |--①-|
②口口口 |②③--|
①③口口
口③口口

⑥⑥口④
口口口⑤
口口口口 |④---|
口口口口 |⑤-⑥-|
39
口口口口 |①-②-|
口⑤⑥口 |③④⑤⑥|
口②④①
口口口③

⑧口⑦口
⑧口口口
⑦⑨口口 |⑦-⑧⑨|
口⑨口口 |----|
40
③口②① |①-②-|
③口口口 |③④--|
②④口口
口④口口

⑦⑦口⑤
口口口⑥
口口口口 |⑤---|
口口口口 |⑥-⑦-|
41
⑥口口口 |①-②-|
口⑤口口 |③④⑤⑥|
口②④①
口口口③

口⑦口⑦
⑨口⑨口
口⑧口⑧ |⑦-⑧-|
⑩口⑩口 |⑨⑩--|
42
②口①口 |--①-|
②口口口 |②③--|
①③口口
口③口口

⑥⑥口④
口口口⑤
口口口口 |④---|
口口口口 |⑤-⑥-|
43
口口口口 |①-②-|
口⑤⑥口 |③④⑤⑥|
口②④①
口口口③

⑧口⑦口
⑧口口口
⑦⑨口口 |⑦-⑧⑨|
口⑨口口 |----|
44
③口②① |①-②-|
③口口口 |③④--|
②④口口
口④口口

⑦⑦口⑤
口口口⑥
口口口口 |⑤---|
口口口口 |⑥-⑦-|
45
⑥口口口 |①-②-|
口⑤口口 |③④⑤⑥|
口②④①
口口口③

口⑦口⑦
⑨口⑨口
口⑧口⑧ |⑦-⑧-|
⑩口⑩口 |⑨⑩--|
46
口口③① |①-②-|
口⑤④口 |③④-⑤|
口②口口
口⑤口口

⑦口⑧⑧
口口口⑥
⑦口口⑥ |--⑥-|
口口口口 |⑦-⑧-|
47
④④⑤⑤ |①--②|
②③②③ |--③-|
口①口口 |④---|
口③②① |⑤---|
48
口口⑤口 |①-②-|
口口②口 |③④-⑤|
口④⑤口
①③口口

口口口口
⑥口口⑦
⑥口口口 |--⑥-|
⑧⑧口⑦ |⑦-⑧-|
49
①③②口 |①--②|
口口①口 |--③-|
②③②③
口口口口

口口⑧⑧
⑦⑥⑤④
口口⑨⑨ |④⑤⑥⑦|
口口口口 |⑧-⑨-|
50
①③口口 |①-②-|
口④⑤② |③④-⑤|
口口口口
口口⑤口

⑧⑧口⑦
⑥口口口
⑥口口⑦ |--⑥-|
口口口口 |⑦-⑧-|
51
⑤⑤④④ |①--②|
③②③② |--③-|
口口①口 |④---|
①②③口 |⑤---|
52
口⑤口口 |①-②-|
口口口口 |③④-⑤|
②⑤④口
口口③①

口口口口
⑦口口⑥
口口口⑥ |--⑥-|
⑦口⑧⑧ |⑦-⑧-|
53
口②③① |①--②|
口①口口 |--③-|
③②③②
口口口口

⑧口口⑧
④⑥⑤⑦
⑨⑨⑨⑨ |④⑤⑥⑦|
④⑥⑤⑦ |-⑧-⑨|

不確定度: 0

最終更新:2016年07月27日 16:43