もってけ!セーラーふく
泉こなた(CV.平野 綾)、 柊かがみ(CV.加藤 英美里)、 柊つかさ(CV.福原 香織)、 高良みゆき(CV.遠藤 綾)

BASIC

Level: 3
BPM: 150
Notes: 245

1
口口口口 |----|
口口口口 |----|
口口口口 |----|
口口口口 |----|
2
口口口口 |①---|
①③④② |②---|
①口口② |③-④-|
口口口口 |----|
3
③口口③ |①---|
口口口口 |②---|
口②口口 |--③-|
口①口口 |----|
4
口口口口 |①---|
①③④② |②---|
①口口② |③-④-|
口口口口 |----|
5
③口口③ |①---|
口口口口 |②---|
口②口口 |--③-|
口①口口 |----|
6
口口口口 |①---|
口①①口 |----|
口②②口 |②---|
口口口口 |----|
7
口口口口 |①---|
口口口口 |----|
口口口口 |②---|
②①①② |----|
8
口口口口 |①---|
②②①① |----|
口口口口 |②---|
口口口口 |----|
9
④口口④ |①---|
口口③口 |②---|
口②口口 |③---|
口口①口 |④---|
10
口口口口 |①---|
①②口口 |----|
口口口口 |②---|
口口口口 |----|
11
口口口口 |①---|
口口①口 |----|
口②③口 |②---|
口口口口 |③---|
12
口口口口 |①---|
口口②① |----|
口口口口 |②---|
口口口口 |----|
13
口口口口 |①---|
口口口口 |②---|
口①②口 |③---|
口③④口 |④---|
14
④口口口 |①---|
③口口口 |②---|
②口口口 |③---|
①口口口 |④---|
15
口①口口 |①---|
口②口口 |②---|
口③口口 |③---|
口④口口 |④---|
16
口口④口 |①---|
口口③口 |②---|
口口②口 |③---|
口口①口 |④---|
17
口口口① |①---|
口③口② |②---|
口口④口 |③-④-|
口口口口 |----|
18
④口口口 |①---|
③口口口 |②---|
②口口口 |③---|
①口口口 |④---|
19
口①口口 |①---|
口②口口 |②---|
口③口口 |③---|
口④口口 |④---|
20
口口④口 |①---|
口口③口 |②---|
口口②口 |③---|
口口①口 |④---|
21
口③③① |①---|
口④④② |②---|
口⑤⑤口 |③-④-|
口口口口 |⑤---|
22
①②口口 |①---|
口口口口 |----|
口口口口 |②---|
口口口口 |----|
23
口口①② |①---|
口口口口 |----|
口口口口 |②---|
口口口口 |----|
24
口口口口 |①---|
①②口口 |----|
口口口口 |②---|
口口口口 |----|
25
口口口口 |①---|
口口①② |----|
口口口口 |②---|
口口口口 |----|
26
③口口③ |--①-|
④口口④ |②---|
⑤②①⑤ |③--④|
口口口口 |--⑤-|
27
③口口③ |--①-|
④口口④ |②---|
⑤①②⑤ |③--④|
口口口口 |--⑤-|
28
③口口③ |--①-|
④口口④ |②---|
⑤②①⑤ |③--④|
口口口口 |--⑤-|
29
③口口③ |--①-|
④口口④ |②---|
⑤①②⑤ |③--④|
口口口口 |--⑤-|
30
②①①② |--①-|
③口口③ |----|
④口口④ |②--③|
口口口口 |--④-|
31
③口口③ |--①-|
④口口④ |②---|
⑤①②⑤ |③--④|
口口口口 |--⑤-|
32
口口口口 |①---|
口口口口 |②---|
口③④口 |③---|
口①②口 |④---|
33
口③④口 |①---|
口①②口 |②---|
口口口口 |③---|
口口口口 |④---|
34
口口口口 |①---|
口④③② |②---|
口①①口 |③---|
口口口口 |④---|
35
口口口口 |①---|
①口口口 |②---|
②③④口 |③---|
口口口口 |④---|
36
口④③② |①---|
口①①口 |②---|
口口口口 |③---|
口口口口 |④---|
37
①口口口 |①---|
②③④口 |②---|
口口口口 |③---|
口口口口 |④---|
38
口口口口 |①---|
口④③② |②---|
口①①口 |③---|
口口口口 |④---|
39
口①①口 |①---|
口口口口 |②---|
②③④口 |③---|
口口口口 |④---|
40
口口口口 |①---|
口④③② |②---|
口口口口 |③---|
口①①口 |④---|
41
口口口口 |①---|
④口口④ |②---|
③口口③ |③---|
口②①口 |④---|
42
口①①口 |①---|
口口②口 |②---|
口口③口 |③---|
口口④口 |④---|
43
口④口口 |①---|
①③口① |②---|
口②口口 |③---|
口口口口 |④---|
44
②口口口 |①---|
④口口③ |②---|
口①①口 |③---|
口口口口 |④---|
45
口口口口 |①---|
口口口口 |②---|
②口口① |③---|
④口口③ |④---|
46
口④口口 |①---|
口口③口 |②---|
口②口口 |③---|
口①①口 |④---|
47
口口①口 |①---|
口②口口 |②---|
口口③口 |③---|
口④口口 |④---|
48
口口口口 |①---|
④口口③ |②---|
②口口① |③---|
口口口口 |④---|
49
口口口口 |①---|
口口口口 |②---|
口②①口 |③---|
口④③口 |④---|
50
口口口口 |①---|
①③④② |②---|
①口口② |③-④-|
口口口口 |----|
51
③口口③ |①---|
口口口口 |②---|
口②口口 |--③-|
口①口口 |----|
52
口口口口 |①---|
口①①口 |----|
口②②口 |②---|
口口口口 |----|
53
①口口① |①---|
②③③② |②---|
口③③口 |③---|
口口口口 |----|

不確定度: 0

最終更新:2016年07月27日 16:43