もってけ!セーラーふく
泉こなた(CV.平野 綾)、 柊かがみ(CV.加藤 英美里)、 柊つかさ(CV.福原 香織)、 高良みゆき(CV.遠藤 綾)

ADVANCED

Level: 7
BPM: 150
Notes: 421

1
口口口口 |----|
口口口口 |----|
口口口口 |----|
口口口口 |----|
2
口③口口 |①---|
④③口口 |②---|
②③口② |③---|
①口口① |--④-|
3
口口口口 |①②-③|
口口②① |④⑤⑥-|
口③④口
口⑤⑥口

口口口口
⑦口口⑧
口口口口 |--⑦-|
口口口口 |--⑧-|
4
口口口口 |①---|
口口口口 |②--③|
②口③②
①口口①

口⑥⑦口
口④⑤口
口口口口 |④⑤⑥⑦|
⑧口口口 |--⑧-|
5
⑨⑦⑥⑨ |①②-③|
口⑤④口 |④⑤⑥⑦|
口③⑧口 |--⑧-|
口口②① |--⑨-|
6
口④④口 |①-②-|
口②②⑥ |--③-|
口⑤⑤口 |④-⑤-|
③①①③ |--⑥-|
7
口口口口 |①-②-|
①③口口 |--③-|
口口口口
口口②口

口口⑤④
口口口口
⑥⑦口口 |④⑤-⑥|
口口⑧⑧ |⑦-⑧-|
8
口④口口 |①---|
③③①① |--②-|
口口口口 |③---|
②②口口 |--④-|
9
⑥口口⑤ |①②③④|
口④③口 |⑤-⑥-|
口②①口
口口口口

口口口口
⑧口口⑦
口⑨⑨口 |⑦-⑧-|
口⑨⑨口 |⑨---|
10
⑥口口⑤ |①-②-|
口④③口 |③④--|
口⑧⑦口 |⑤-⑥-|
②口口① |⑦⑧--|
11
口⑦⑤口 |①-②-|
口④③口 |③④--|
⑧口口⑥ |⑤-⑥-|
②口口① |⑦-⑧-|
12
口口口口 |①-②-|
口⑧⑦口 |③-④-|
口⑥⑤口 |⑤-⑥-|
④③②① |⑦-⑧-|
13
②②①① |①-②-|
⑥口口⑥ |③-④-|
口⑤⑤口 |⑤---|
④④③③ |⑥---|
14
①②③口 |①-②-|
⑦⑧口口 |③-④-|
口⑥⑤④ |⑤-⑥-|
口口口口 |⑦-⑧-|
15
口口口口 |①-②-|
口口①口 |③-④-|
口口口口
口④③②

口口口口
口⑦⑦口
⑥⑧⑧⑤ |⑤-⑥-|
口口口口 |⑦-⑧-|
16
口口⑦① |①-②-|
⑥口⑧② |③-④-|
⑤口口③ |⑤-⑥-|
④口口口 |⑦-⑧-|
17
③④口② |①-②-|
口口口⑤ |③④-⑤|
口⑧①口 |⑥⑦⑧-|
⑨⑥⑦口 |--⑨-|
18
①⑧口② |①-②-|
口⑥⑦口 |③-④-|
口④⑤口 |⑤-⑥-|
口口口③ |⑦-⑧-|
19
⑧⑦⑦⑧ |①-②-|
⑥⑤⑤⑥ |③-④-|
③④口口 |⑤-⑥-|
口口②① |⑦-⑧-|
20
口口口口 |①---|
口口口口 |--②-|
口③③口 |----|
②②①① |③---|
21
口⑥⑤口 |①-②-|
口⑧⑦口 |③-④-|
④口⑨① |⑤⑥⑦⑧|
口③②口 |⑨---|
22
①②③④ |①---|
口口口口 |②---|
口口口口 |③---|
口口口口 |④---|
23
口口口口 |①---|
口口口① |②---|
口口口② |③---|
口口④③ |④---|
24
口口口口 |①---|
④口口口 |②---|
③口口口 |③---|
②①口口 |④---|
25
①②③④ |①---|
口口口口 |②---|
口口口口 |③---|
口口口口 |④---|
26
③口口③ |--①-|
④①②④ |②---|
⑤②①⑤ |③--④|
口口口口 |--⑤-|
27
⑤口口⑤ |--①-|
口①②口 |②---|
口②①口 |③--④|
④③④③ |--⑤-|
28
口③④口 |--①-|
③①②④ |②---|
口②①口 |③--④|
口⑤⑤口 |--⑤-|
29
口⑤⑤口 |--①-|
④①②③ |②---|
④②①③ |③--④|
口口口口 |--⑤-|
30
①口口① |--①-|
口①①口 |----|
④口口④ |②--③|
③③②② |--④-|
31
④③④③ |--①-|
口①②口 |②---|
口②①口 |③--④|
口⑤⑤口 |--⑤-|
32
口⑦⑧口 |①-②-|
④⑤⑥口 |③-④-|
口③②① |⑤-⑥-|
口口口口 |⑦-⑧-|
33
口⑦⑦口 |①-②-|
口⑥⑥口 |③-④-|
③⑤⑤④ |⑤-⑥-|
①口口② |⑦---|
34
⑤口⑥③ |①-②-|
②口④口 |--③-|
口口④口 |④---|
①①①① |⑤-⑥-|
35
口⑥口⑤ |①-②-|
口①口⑦ |③-④-|
口②口⑦ |⑤---|
口③口④ |⑥-⑦-|
36
口⑥⑦⑦ |--①-|
口⑤口口 |②-③-|
①④②口 |④-⑤-|
口口③口 |⑥-⑦-|
37
口口口口 |--①-|
③③③口 |----|
口②②② |--②-|
①①口口 |--③-|
38
②口口① |----|
口口③口 |①-②-|
口口④口 |----|
口口口口 |③-④-|
39
口口口口 |--①-|
口口③③ |--②-|
②②口口 |----|
①①口口 |③---|
40
口口①① |①---|
口②口口 |②-③-|
口口③口 |----|
口口口口 |----|
41
口口口口 |----|
口口口口 |----|
口口口口 |----|
口口口口 |----|
42
口③口口 |①-②-|
口口口口 |③-④-|
②口④口
①①①①

口口口⑤
⑦⑦口⑤
口口口口 |⑤---|
口口口⑥ |⑥-⑦-|
43
④④⑥⑥ |--①-|
口口①口 |②-③-|
口②口口 |④---|
⑤口③口 |⑤-⑥-|
44
口口口口 |--①-|
④口⑥⑥ |②-③-|
④③②① |④---|
口口⑤⑤ |⑤-⑥-|
45
①①①① |--①-|
口④④口 |----|
口口③口 |--②-|
口②口口 |③-④-|
46
①③③① |----|
口口口口 |①-②-|
②④④② |----|
口口口口 |③-④-|
47
口口口口 |--①-|
①口口① |--②-|
②口口② |----|
口③③口 |③---|
48
口口口口 |①---|
②③③① |②-③-|
口②①口 |----|
口口口口 |----|
49
口口口口 |----|
口口口口 |----|
口口口口 |----|
口口口口 |----|
50
口③口口 |①---|
④③口口 |②---|
②③口② |③---|
①口口① |--④-|
51
口口口口 |①②-③|
⑦口②① |④⑤⑥-|
口③④口 |--⑦-|
⑧⑤⑥⑧ |--⑧-|
52
③①①③ |①-②-|
口⑤⑤口 |--③-|
口②②口 |④-⑤-|
⑥④④⑥ |--⑥-|
53
⑤口口⑤ |①-②-|
②⑤⑤① |③-④-|
④②①③ |⑤---|
口④③口 |----|

不確定度: 0

最終更新:2016年07月27日 16:42