もってけ!セーラーふく
泉こなた(CV.平野 綾)、 柊かがみ(CV.加藤 英美里)、 柊つかさ(CV.福原 香織)、 高良みゆき(CV.遠藤 綾)
EXTREME
Level: 9
BPM: 150
Notes: 598
1
口口口口 |----|
口口口口 |----|
口口口口 |----|
口口口口 |----|
2
①③④② |①---|
口③④口 |②---|
口③④口 |③-④-|
②⑥⑤① |--⑤⑥|
3
口口口口 |①②-③|
②口口① |④⑤⑥-|
⑥口口⑤
④口口③
口口口⑦
口口⑦⑧
口⑧口口 |--⑦-|
口口口口 |--⑧-|
4
口口③口 |①---|
口口口口 |②--③|
口口②口
②①①口
口⑦口口
口⑥口口
⑧口口⑤ |④⑤⑥⑦|
口口⑧④ |--⑧-|
5
口口口口 |①②-③|
③口①② |④⑤⑥-|
口④⑤口
②①口⑥
口口口口
口口⑧口
⑦口口⑦ |--⑦-|
口口口口 |--⑧-|
6
①②口口 |①-②-|
口③口口 |--③-|
口口口口
口口①②
口⑥⑤④
口口口口
口口口口 |④-⑤-|
⑤④口口 |--⑥-|
7
⑤口④口 |①-②-|
①③①③ |--③-|
②③①口 |④⑤-⑥|
口⑦⑧⑥ |⑦-⑧-|
8
口①口① |①---|
②②②口 |②-③-|
①口①口
③口口口
④口④⑥
口口口口
口④口④ |④---|
口⑤⑤⑤ |⑤-⑥-|
9
⑤口口口 |①②③④|
①口②口 |⑤-⑥-|
③口④口
⑥口口口
口⑨⑦⑨
⑨口⑨口
口口口口 |⑦-⑧-|
口口⑧口 |⑨---|
10
④口⑩⑨ |①-②-|
口③⑧口 |③④-⑤|
⑥⑥⑦⑦ |⑥-⑦-|
②口⑤① |⑧⑨-⑩|
11
④口口口 |①-②-|
口③口口 |③④-⑤|
口口口口
⑤①②口
口口⑧⑥
口口口口
口口口口 |⑥-⑦-|
口口⑨⑦ |⑧-⑨-|
12
口口口口 |①②③④|
①②③口 |⑤⑥⑦⑧|
④⑤⑥口
⑦⑧口口
⑫口口⑨
口⑩⑪口
口口口口 |--⑨-|
口口口口 |⑩⑪-⑫|
13
口口口口 |①-②-|
口口口口 |③-④-|
口口口口
④③②①
口口口⑥
⑩口口⑦
⑩⑤⑤⑧ |⑤---⑥⑦⑧⑨|
口口口⑨ |⑩---|
14
①①⑤⑤ |①-②③|
口⑥②口 |④-⑤-|
⑫③⑦⑪ |⑥⑦⑧-|
⑩⑧④⑨ |⑨⑩⑪⑫|
15
②③④口 |①-②③|
口口口① |④-⑤⑥|
口⑥⑤口
口口口口
口口口⑨
⑩⑧⑦⑪
口口口口 |⑦⑧-⑨|
⑩口口⑪ |⑩-⑪-|
16
⑥口口⑦ |①②③④|
口口⑤口 |⑤-⑥⑦|
口④③口
口②①口
口口口口
⑧口口⑨
⑩⑭⑬口 |⑧⑨⑩-|
口⑫⑪口 |⑪⑫⑬⑭|
17
②④③② |①-②-|
⑧口①口 |③④-⑤|
⑥⑨⑨⑦ |⑥⑦⑧-|
口口口⑤ |--⑨-|
18
②口③② |①-②-|
⑥①①口 |③④⑤⑥|
④口口口
口口口⑤
⑫⑧口口
口⑬⑪⑦
口⑩口口 |⑦⑧⑨⑩|
口口⑨口 |⑪⑫-⑬|
19
口⑥③口 |①②③④|
④口口口 |⑤⑥⑦⑧|
口口⑦①
⑧②口⑤
⑫口口⑫
口口⑨⑨
⑩⑩口口 |⑨-⑩-|
口⑪⑪口 |⑪-⑫-|
20
口④口口 |①②③-|
①②⑥⑤ |④-⑤⑥|
口口③④
口口口口
口口⑨口
⑪口口口
⑧⑦口口 |⑦⑧⑨-|
⑩口⑫口 |⑩-⑪⑫|
21
③口口⑥ |①②③④|
口⑤口⑧ |⑤⑥⑦⑧|
⑦口②④
口①口口
口⑨口口
⑩口口口
口⑪口口 |⑨⑩⑪⑫|
⑫⑬口口 |⑬---|
22
②口口⑦ |①-②-|
④口口⑤ |③-④-|
⑥口口③ |⑤-⑥-|
⑧口口① |⑦-⑧-|
23
⑥④①⑦ |①-②-|
口⑥⑦口 |③-④-|
口⑧⑤口 |⑤-⑥-|
⑧②③⑤ |⑦-⑧-|
24
口②⑦口 |①-②-|
④口口⑤ |③-④-|
⑥口口③ |⑤-⑥-|
口⑧①口 |⑦-⑧-|
25
口②口口 |①-②-|
④口口口 |③-④-|
口口口③
口口①口
⑧⑧⑤⑤
口口口口
口口口口 |⑤-⑥-|
⑥⑥⑦⑦ |⑦-⑧-|
26
口口口口 |①-②-|
③①②① |③---|
①③①②
口口口口
口口口口
口⑥口⑥
口口口口 |④--⑤|
⑤④⑤④ |--⑥-|
27
③口③口 |--①-|
②口①口 |②---|
⑤②⑤① |③--④|
④口④口 |--⑤-|
28
口口口③ |--①-|
②口①③ |②---|
④②⑤① |③--④|
④口⑤口 |--⑤-|
29
④④③③ |--①-|
②口①口 |②---|
口②口① |③--④|
口⑤⑤口 |--⑤-|
30
③口④② |--①-|
①口①口 |----|
口①口① |②--③|
②④口③ |--④-|
31
口④口④ |--①-|
②口①口 |②---|
⑤②⑤① |③--④|
③口③口 |--⑤-|
32
⑪⑪⑩⑩ |①②③-|
⑦口⑧③ |④-⑤⑥|
口⑨口④ |⑦⑧⑨-|
⑤②⑥① |⑩-⑪-|
33
口口口口 |①②③④|
⑥口⑦① |⑤⑥⑦⑧|
②⑧口⑤
④口口③
口口⑬口
口⑫口⑬
口口⑪口 |⑨⑩⑪⑫|
口⑩⑨口 |⑬---|
34
口口口口 |①-②-|
口③②口 |--③-|
口②③口
①口口①
④口口④
⑥口口⑥
口口口口 |④---|
⑤口口⑤ |⑤-⑥-|
35
④⑤⑤④ |①-②-|
⑦⑦⑦⑦ |③-④-|
①③③① |⑤---|
⑥②②⑥ |⑥-⑦-|
36
①③③① |--①-|
⑥口口⑥ |②-③-|
②④④② |④-⑤-|
⑤⑦⑦⑤ |⑥-⑦-|
37
①①①① |--①-|
②口口③ |----|
口口口口 |--②-|
口③②口 |--③-|
38
口③③口 |----|
口口口口 |①-②-|
②①①② |----|
口④④口 |③-④-|
39
口口口口 |--①-|
①口口① |--②-|
口②②口 |----|
口③③口 |③---|
40
①口口② |①---|
口③③口 |②-③-|
①口口②
口口口口
⑤口口口
④口口口
口口口口 |④---|
口口口口 |⑤---|
41
口口口口 |①-②-|
口③口④ |③④⑤⑥|
口⑤②⑥
①口口口
口⑦⑪⑧
口口⑫口
口口⑬口 |⑦⑧⑨⑩|
口⑨⑭⑩ |⑪⑫⑬⑭----|
42
口口口口 |①-②-|
口①口① |③-④-|
③口口②
①口口④
⑥口⑦⑤
⑤口口⑦
口口⑤口 |⑤---|
口口⑥口 |⑥-⑦-|
43
口⑥口⑤ |①-②-|
口⑤②口 |③-④-|
口③口⑦ |⑤---|
口①⑦④ |⑥-⑦-|
44
⑥口②口 |①-②-|
⑤口⑤⑤ |③-④-|
③口④口 |⑤---|
①口⑦⑦ |⑥-⑦-|
45
口⑥②② |①-②-|
口④口⑤ |③---|
口③②② |④-⑤-|
口①⑦⑦ |⑥-⑦-|
46
⑤口口口 |①---|
④口口③ |②-③-|
②⑥⑥③ |④---|
①口口口 |⑤-⑥-|
47
⑥②②口 |①-②-|
⑤口口口 |③-④-|
③⑥⑥口 |⑤---|
①④④口 |⑥---|
48
⑤口口口 |①---|
④口口口 |②-③-|
②口口③ |④---|
①口口① |⑤---|
49
口⑥口口 |①-②-|
口口⑤口 |③④⑤⑥|
口④口口
②口③①
⑨口⑧⑦
口口口口
口口口口 |⑦-⑧-|
⑬⑫⑪⑩ |⑨---⑩⑪⑫⑬|
50
③③③口 |①---|
口①②口 |②---|
①⑤⑥② |③-④-|
口④④④ |--⑤⑥|
51
口口口③ |①②-③|
④①②⑤ |④⑤⑥⑦|
⑥⑨⑨⑦ |--⑧-|
⑧⑧⑧⑧ |--⑨-|
52
③口②口 |①-②-|
③①①③ |③-④⑤|
④口口③
口⑤口口
口口口⑧
口口⑧口
口⑧⑦口 |⑥-⑦-|
⑧口⑥⑨ |⑧-⑨-|
53
⑤①①⑤ |①-②-|
③口口③ |③-④-|
②⑤⑤② |⑤---|
口④④口 |----|
不確定度: 0